<?xml version="1.0" standalone="no"?>
<!DOCTYPE svg PUBLIC "-//W3C//DTD SVG 1.1//EN" "http://www.w3.org/Graphics/SVG/1.1/DTD/svg11.dtd" >
<svg xmlns="http://www.w3.org/2000/svg" xmlns:xlink="http://www.w3.org/1999/xlink" version="1.1">
<metadata>
Created by FontForge 20201107 at Sun Feb 22 10:38:59 2004
 By 
Digitized data (c) Copyright 1997 E+F Designstudios. ITC American Typewriter is a registered trademark of International Typeface Corporation.
</metadata>
<defs>
<font id="AmericanTypewriter" horiz-adv-x="637" >
  <font-face 
    font-family="American Typewriter"
    font-weight="400"
    font-stretch="normal"
    units-per-em="1000"
    panose-1="2 9 6 4 2 0 4 2 3 4"
    ascent="800"
    descent="-200"
    x-height="500"
    cap-height="671"
    bbox="-474 -250 1130 904"
    underline-thickness="20"
    underline-position="-176"
    unicode-range="U+0008-FB02"
  />
<missing-glyph horiz-adv-x="500" 
d="M63 0v758h375v-758h-375zM125 63h250v633h-250v-633z" />
    <glyph glyph-name="fi" unicode="fi" horiz-adv-x="600" 
d="M392 580q0 13 7 26q-27 26 -82 26q-114 0 -114 -114q0 -24 19 -24h146q56 0 80 3q9 2 20 2q28 0 28 -37q0 -4 -1 -7q-1 -19 -1 -33q0 5 -1 -48l-1 -53v-162q0 -57 1 -62q4 -41 28 -41q11 0 23.5 3.5t20.5 3.5q32 0 32 -33q0 -34 -40 -34q-9 0 -58 5q-29 3 -59 3
q-25 0 -47 -3q-37 -5 -49 -5q-30 0 -30 32q0 35 32 35q5 0 18 -3t23 -3q24 0 29 47q1 5 1 63v136q0 97 -11 111t-70 14h-100q-24 0 -28 -6t-4.5 -10.5t-0.5 -23.5v-148v-43q0 -19 1 -45q1 -22 1 -28v-41q4 -26 23 -26q7 0 19.5 3t18.5 3q33 0 33 -34q0 -33 -40 -33
q-9 0 -43 5q-21 3 -51 3q-39 0 -54 -2l-46 -6h-9q-39 0 -39 33q0 37 38 37q5 0 17 -2q16 -5 26 -5q25 0 27 67q0 13 1 68q0 34 1 71q1 32 1 35v104q0 16 -3 20t-17 4h-46q-36 0 -36 33t36 33h43q17 0 21.5 3t4.5 15q5 179 189 179q76 0 125 -29.5t49 -76.5q0 -51 -51 -51
q-22 0 -36.5 13t-14.5 33z" />
    <glyph glyph-name="fl" unicode="fl" horiz-adv-x="600" 
d="M300 691q66 0 122 -28q10 1 28 2.5t24 1.5q24 0 24 -30q0 5 -1 -7l-3 -36q-7 -84 -7 -157v-296q0 -44 1 -50q5 -34 26 -34q9 0 20.5 3.5t20.5 3.5q33 0 33 -32q0 -36 -38 -36q-9 0 -55 7q-26 4 -57 4q-35 0 -71 -8q-13 -3 -24 -3q-30 0 -30 33q0 34 34 34q5 0 16.5 -3
t15.5 -3q16 0 22 17t7 65l4 167v200q0 76 -22.5 101t-92.5 25q-94 0 -94 -103q0 -26 3.5 -30.5t25.5 -4.5h44q45 0 45 -32q0 -34 -42 -34h-53q-15 0 -19 -5t-4 -23v-273q0 -37 1 -43q4 -27 24 -27q5 0 26 5q4 1 13 1q34 0 34 -32q0 -35 -36 -35q-16 0 -48.5 4t-49.5 4
q-33 0 -57 -3q-40 -5 -50 -5q-43 0 -43 35q0 13 10.5 23t24.5 10q10 0 22.5 -3.5t22.5 -3.5q19 0 24 24t6 116l1 213q0 18 -18 18h-50q-35 0 -35 33t36 33h48q15 0 18.5 5t4.5 27q3 76 34 114q42 51 134 51z" />
    <glyph glyph-name=".notdef" horiz-adv-x="500" 
d="M63 0v758h375v-758h-375zM125 63h250v633h-250v-633z" />
    <glyph glyph-name=".null" horiz-adv-x="0" 
 />
    <glyph glyph-name="nonmarkingreturn" horiz-adv-x="333" 
 />
    <glyph glyph-name="controlNULL" horiz-adv-x="0" 
 />
    <glyph glyph-name="controlNULL" horiz-adv-x="0" 
 />
    <glyph glyph-name="controlBS" horiz-adv-x="0" 
 />
    <glyph glyph-name="controlHT" unicode="&#x9;" horiz-adv-x="250" 
 />
    <glyph glyph-name="controlCR" unicode="&#xd;" horiz-adv-x="250" 
 />
    <glyph glyph-name="controlGS" horiz-adv-x="0" 
 />
    <glyph glyph-name="space" unicode=" " horiz-adv-x="250" 
 />
    <glyph glyph-name="exclam" unicode="!" horiz-adv-x="419" 
d="M209 -17q-26 0 -44 18.5t-18 44.5t18 44.5t44 18.5t44.5 -18.5t18.5 -44.5t-18.5 -44.5t-44.5 -18.5zM174 413l-2 110q0 41 -2 93q-1 8 -1 19q0 54 42 54q43 0 43 -58q0 -11 -1 -20q-1 -5 -3 -88l-3 -108v-188q0 -35 -1 -43q-4 -28 -21 -31q-6 -1 -15 -1q-36 0 -36 50
v211z" />
    <glyph glyph-name="quotedbl" unicode="&#x22;" horiz-adv-x="329" 
d="M134 667l-14 -268h-54l-13 268h81zM276 667l-13 -268h-54l-13 268h80z" />
    <glyph glyph-name="numbersign" unicode="#" horiz-adv-x="600" 
d="M438 274h110l-11 -67h-109l-32 -207h-75l32 207h-135l-32 -207h-74l32 207h-112l10 67h112l20 132h-111l10 67h111l30 194h75l-30 -194h134l30 194h75l-29 -194h108l-10 -67h-109zM363 274l20 132h-134l-20 -132h134z" />
    <glyph glyph-name="dollar" unicode="$" 
d="M468 540q-21 64 -114 65v-224q8 -2 25 -6q78 -18 108 -33t56 -49q31 -41 31 -97q0 -53 -29 -98.5t-77 -67.5q-44 -21 -114 -34v-85q0 -26 -28 -26t-28 26v85q-74 5 -125 26.5t-80.5 61.5t-29.5 88q0 41 20 66t53 25q22 0 37 -14.5t15 -36.5q0 -43 -52 -46q5 -47 48.5 -75
t113.5 -29v252l-15 4q-81 22 -110 35q-36 16 -56 45q-23 33 -23 84q0 52 29 97t75 65q39 17 100 27v80q0 30 28 30t28 -30v-80q90 -10 143 -50t53 -98q0 -26 -16 -43.5t-40 -17.5q-20 0 -34 13t-14 31q0 20 22 34zM298 393v212q-56 -2 -91.5 -32t-35.5 -76q0 -40 24 -61.5
t85 -37.5q5 -1 18 -5zM354 302v-240q61 1 101.5 36t40.5 88q0 49 -29 75t-96 38q-4 1 -17 3z" />
    <glyph glyph-name="percent" unicode="%" horiz-adv-x="801" 
d="M202 15l274 528q-30 -19 -56 -19q-47 0 -72 35q8 -36 8 -73q0 -94 -43.5 -149t-118.5 -55q-72 0 -115.5 55t-43.5 146q0 95 44.5 150.5t120.5 55.5q40 0 64 -11.5t63 -48.5q50 -48 95 -48q70 0 121 91q16 29 43 29q28 0 28 -15q0 -2 -2 -10l-9 -17l-342 -656
q-11 -22 -18 -28q-10 -10 -29 -10q-26 0 -26 17q0 7 6 18zM441 172q0 98 45 155.5t122 57.5q74 0 116 -53t42 -148q0 -92 -44.5 -149t-115.5 -57q-77 0 -121 52t-44 142zM289 484q0 148 -90 148q-97 0 -97 -150q0 -68 25 -105.5t70 -37.5q92 0 92 145zM699 182
q0 146 -90 146q-47 0 -74 -40.5t-27 -111.5q0 -66 25.5 -103.5t70.5 -37.5q44 0 69.5 39t25.5 108z" />
    <glyph glyph-name="ampersand" unicode="&#x26;" horiz-adv-x="819" 
d="M459 569q0 -111 -144 -185l11 -18q27 -45 96 -143l11 -14l6 17l39 103q70 184 199 184q60 0 97 -34.5t37 -90.5q0 -53 -35 -89.5t-87 -36.5q-38 0 -62 19t-24 50q0 48 42 48q36 0 36 -33q0 -4 -5 -16q14 -2 16 -2q19 0 33 16t14 39q0 29 -18.5 46.5t-50.5 17.5
q-52 0 -85 -57q-27 -46 -66 -153q-21 -58 -39 -90q43 -48 72 -64t73 -16q9 0 26.5 2t26.5 2q41 0 41 -37q0 -35 -42 -35h-16q-14 1 -28 1h-53q-69 0 -147 81q-27 -31 -46 -44q-62 -43 -143 -43q-91 0 -149 55t-58 142q0 117 98 179q33 21 61 35l12 6q-53 96 -53 154
q0 60 41.5 97t109.5 37q71 0 112 -35t41 -95zM237 569q0 -38 44 -125q97 46 97 118q0 32 -19.5 51.5t-52.5 19.5q-31 0 -50 -17.5t-19 -46.5zM282 280q-24 37 -43 70q-38 -18 -62 -39q-55 -47 -55 -119q0 -56 35.5 -90.5t92.5 -34.5q85 0 137 69q-67 86 -105 144z" />
    <glyph glyph-name="quotesingle" unicode="'" horiz-adv-x="187" 
d="M134 667l-14 -268h-54l-13 268h81z" />
    <glyph glyph-name="parenleft" unicode="(" horiz-adv-x="455" 
d="M67 248v19q0 174 111 294q63 68 139 105q63 31 92 31q19 0 19 -14q0 -11 -26 -24q-96 -47 -168 -134q-84 -101 -84 -250q0 -201 102 -321q72 -85 156 -125q28 -13 28 -26t-18 -13q-35 0 -107 39q-116 63 -179 175q-60 106 -65 244z" />
    <glyph glyph-name="parenright" unicode=")" horiz-adv-x="455" 
d="M264 565q117 -127 123 -326q1 -6 1 -19q0 -174 -112 -295q-60 -65 -139 -104q-63 -31 -92 -31q-19 0 -19 14q0 11 26 24q98 50 169 134q84 100 84 250q0 201 -102 321q-72 84 -157 125q-28 13 -28 25q0 14 18 14q35 0 106.5 -38.5t121.5 -93.5z" />
    <glyph glyph-name="asterisk" unicode="*" 
d="M349 629l-17 -92q0 -5 5 -5q3 0 15 11l58 54q19 18 40 18q33 0 33 -29t-39 -44l-75 -28q-17 -7 -17 -12q0 -4 17 -11l75 -28q39 -15 39 -43q0 -30 -33 -30q-21 0 -40 18l-58 54q-12 11 -15 11q-5 0 -5 -5v-4l2 -12l15 -76q2 -10 2 -17q0 -42 -33 -42t-33 42q0 8 2 17
l16 76q2 10 2 15q0 6 -5 6q-3 0 -15 -11l-58 -54q-19 -18 -41 -18q-32 0 -32 29t39 44l74 28q17 7 17 11q0 6 -17 12l-74 28q-39 15 -39 43q0 29 33 29q22 0 40 -17l58 -54q12 -11 15 -11q5 0 5 6q0 5 -2 15l-16 76q-2 9 -2 17q0 43 33 43t33 -43q0 -7 -2 -17z" />
    <glyph glyph-name="plus" unicode="+" horiz-adv-x="500" 
d="M33 299v68h180v171h74v-171h180v-68h-180v-171h-74v171h-180z" />
    <glyph glyph-name="comma" unicode="," horiz-adv-x="273" 
d="M149 -34q0 17 -17 17h-20q-23 0 -38.5 17t-15.5 42q0 29 20 48.5t50 19.5q36 0 58 -28t22 -73q0 -76 -59 -157q-26 -35 -44 -35q-20 0 -20 20q0 7 8 18q56 74 56 111z" />
    <glyph glyph-name="hyphen" unicode="-" horiz-adv-x="309" 
d="M37 267q0 35 40 35h156q40 0 40 -34q0 -36 -40 -36h-156q-40 0 -40 35z" />
    <glyph glyph-name="hyphen" unicode="&#x2010;" horiz-adv-x="309" 
d="M37 267q0 35 40 35h156q40 0 40 -34q0 -36 -40 -36h-156q-40 0 -40 35z" />
    <glyph glyph-name="period" unicode="." horiz-adv-x="273" 
d="M136 -17q-26 0 -44 18.5t-18 44.5t18 44.5t44 18.5t44 -18.5t18 -44.5t-18 -44.5t-44 -18.5z" />
    <glyph glyph-name="slash" unicode="/" horiz-adv-x="400" 
d="M348 629l-286 -733q-13 -33 -27 -74q-9 -25 -27 -25h-32q-15 0 -15 11q0 4 3 9l10 25l12 29l260 665q11 29 34 93l14 39q8 21 29 21h30q13 0 13 -11q0 -5 -9 -27q-5 -12 -9 -22z" />
    <glyph glyph-name="zero" unicode="0" 
d="M314 -22q-127 0 -199.5 93.5t-72.5 257.5q0 167 75.5 263.5t206.5 96.5q125 0 197.5 -92.5t72.5 -250.5q0 -171 -75 -269.5t-205 -98.5zM322 615q-184 0 -191 -275v-15q0 -131 48 -202.5t136 -71.5q90 0 141 78t51 215q0 131 -48 201t-137 70z" />
    <glyph glyph-name="one" unicode="1" 
d="M283 231l-3 290q-1 51 -10.5 68t-37.5 17q-10 0 -29 -2.5t-29 -2.5q-39 0 -39 35t37 35q12 0 37.5 -2.5t39.5 -2.5q32 0 53 2q31 3 38 3q22 0 27 -13q4 -9 4 -31q0 -3 -1 -24q-5 -107 -5 -194v-113q0 -31 1 -83q2 -63 2 -83q1 -69 46 -69q11 0 33 2.5t33 2.5q48 0 48 -35
t-44 -35q-17 0 -32 2q-84 11 -128 11t-108 -9q-36 -5 -51 -5q-43 0 -43 36q0 35 49 35q15 0 31 -3q24 -2 30 -2q35 0 43 27.5t8 142.5z" />
    <glyph glyph-name="two" unicode="2" 
d="M123 119q45 48 109 48q59 0 124 -52q72 -57 111 -57q28 0 45.5 18.5t17.5 47.5q0 10 -4 22q-16 -16 -36 -16q-43 0 -43 42q0 23 17 38t45 15q37 0 59.5 -26.5t22.5 -70.5q0 -62 -39 -106t-95 -44q-53 0 -127.5 57t-130.5 57t-70 -42q10 2 12 2q29 0 29 -29q0 -45 -50 -45
q-33 0 -53.5 28.5t-20.5 76.5q0 175 241 252l72 23q121 39 121 131q0 62 -43.5 98t-119.5 36q-67 0 -111 -27t-52 -74q54 -4 54 -47q0 -26 -19 -44.5t-47 -18.5q-34 0 -54.5 23.5t-20.5 61.5q0 82 74 137t183 55q106 0 173.5 -55.5t67.5 -143.5q0 -60 -32.5 -106t-90.5 -69
q-18 -7 -120 -42q-73 -25 -117 -48q-32 -17 -54.5 -43t-27.5 -63z" />
    <glyph glyph-name="three" unicode="3" 
d="M250 389l208 204h-232q-39 0 -52 -5q-25 -8 -25 -39q0 -10 2 -29t2 -29q0 -52 -35 -52q-34 0 -34 43q0 12 1.5 36.5t1.5 36.5q0 28 -1 42t-1 31q0 27 10 33.5t50 6.5h246q20 0 68 2q24 1 56 1q59 0 59 -36q0 -23 -25 -47l-184 -177q6 0 16 1h13q85 0 139.5 -54.5
t54.5 -139.5q0 -106 -77.5 -173t-199.5 -67q-112 0 -187 54.5t-75 136.5q0 47 27 79.5t67 32.5q26 0 42.5 -15.5t16.5 -40.5q0 -50 -59 -50h-11v-7q0 -49 54.5 -85t128.5 -36q83 0 136 47.5t53 121.5q0 130 -148 130q-39 0 -81 -9q-9 -2 -17 -2q-24 0 -24 26q0 12 16 28z
" />
    <glyph glyph-name="four" unicode="4" 
d="M453 618v-345h118q33 0 33 -34t-35 -34h-116v-61q0 -83 45 -83q12 0 33 2l21 2q42 0 42 -34q0 -35 -36 -35q-22 0 -59 6q-31 5 -77 5q-28 0 -84 -6t-84 -6q-38 0 -38 34q0 36 46 36q10 0 29.5 -2t29.5 -2q50 0 50 83v61h-310q-46 0 -46 40q0 16 11 32l265 329
q42 52 62 67.5t46 15.5q54 0 54 -71zM112 273h259l7 327z" />
    <glyph glyph-name="five" unicode="5" 
d="M186 557l-12 -160q78 54 172 54q112 0 177 -59.5t65 -162.5q0 -112 -77.5 -181.5t-202.5 -69.5q-103 0 -174.5 50.5t-71.5 123.5q0 36 23 60.5t56 24.5q26 0 42.5 -15t16.5 -40q0 -17 -11.5 -29.5t-27.5 -12.5q-12 -1 -12 -7q0 -33 52.5 -59.5t117.5 -26.5
q80 0 131.5 49.5t51.5 126.5q0 74 -43.5 116.5t-119.5 42.5q-93 0 -148 -54q-22 -21 -31 -27.5t-23 -8.5h-4q-39 0 -39 44q0 2 1 4l14 193q1 16 2 55q1 55 8 67.5t37 12.5q12 0 18 -1l49 1h58h123q29 0 44 1q30 2 41 2q40 0 40 -59l-1 -7q0 -26 8 -61q4 -12 4 -22
q0 -32 -34 -32q-32 0 -34 47q-2 56 -49 56h-209q-25 0 -28 -36z" />
    <glyph glyph-name="six" unicode="6" 
d="M342 623q-90 0 -146 -75.5t-63 -205.5q63 109 208 109q109 0 178 -64t69 -164q0 -107 -74 -176t-190 -69q-128 0 -201.5 85t-73.5 232q0 181 81 287.5t218 106.5q84 0 143 -42t59 -102q0 -28 -19.5 -48t-45.5 -20q-21 0 -36.5 15.5t-15.5 37.5q0 30 28 40q-30 53 -119 53
zM327 383q-81 0 -128 -44.5t-47 -120.5q0 -78 47.5 -124.5t126.5 -46.5q77 0 125.5 48t48.5 124q0 74 -47.5 119t-125.5 45z" />
    <glyph glyph-name="seven" unicode="7" 
d="M139 629l-2 -11q25 40 45 54t54 14q49 0 115 -51q74 -57 114 -57q42 0 52 28h-8q-14 0 -25.5 12t-11.5 27q0 19 14.5 32.5t34.5 13.5q66 0 66 -89q0 -66 -33 -116q-21 -31 -45 -54q-11 -11 -44 -40q-68 -59 -93 -109q-36 -71 -36 -172q0 2 1 -22q2 -48 2 -43
q0 -63 -50 -63q-52 0 -52 82q0 129 48 225q39 78 166 182q52 43 59 71q-34 -29 -86 -29q-64 0 -125 46l-41 31q-22 16 -49 16q-64 0 -64 -82q0 -25 4 -45q7 -35 7 -52t-11.5 -29t-28.5 -12q-40 0 -40 43q0 17 5.5 52t5.5 54q0 28 -4 60t-4 56q0 41 35 41q29 0 29 -35
q0 -7 -4 -29z" />
    <glyph glyph-name="eight" unicode="8" 
d="M121 341q26 20 70 36q-55 31 -75 59.5t-20 73.5q0 76 64.5 127.5t158.5 51.5t158.5 -51.5t64.5 -127.5q0 -45 -20.5 -73.5t-74.5 -59.5q42 -16 69 -36q70 -53 70 -147q0 -96 -73 -156t-191 -60q-123 0 -197 59t-74 157q0 93 70 147zM319 618q-60 0 -98.5 -30.5
t-38.5 -77.5q0 -42 38 -68.5t99 -26.5t98.5 26.5t37.5 69.5q0 47 -38.5 77t-97.5 30zM323 339q-86 0 -134.5 -38.5t-48.5 -105.5q0 -65 49.5 -105.5t129.5 -40.5t129.5 40.5t49.5 105.5t-48 104.5t-127 39.5z" />
    <glyph glyph-name="nine" unicode="9" 
d="M286 43q94 0 149 74.5t58 204.5q-56 -102 -199 -102q-104 0 -169 62.5t-65 162.5q0 105 71.5 174.5t180.5 69.5q124 0 195 -87.5t71 -240.5q0 -179 -79 -281t-218 -102q-88 0 -149.5 42t-61.5 103q0 29 18.5 48.5t45.5 19.5q22 0 38 -14.5t16 -34.5q0 -29 -29 -43
q31 -56 127 -56zM314 618q-75 0 -121.5 -47t-46.5 -122q0 -73 44 -116t118 -43q78 0 122.5 43t44.5 117q0 76 -44.5 122t-116.5 46z" />
    <glyph glyph-name="colon" unicode=":" horiz-adv-x="273" 
d="M136 -17q-26 0 -44 18.5t-18 44.5t18 44.5t44 18.5t44 -18.5t18 -44.5t-18 -44.5t-44 -18.5zM136 321q-26 0 -44 18.5t-18 44.5t18 44.5t44 18.5t44 -18.5t18 -44.5t-18 -44.5t-44 -18.5z" />
    <glyph glyph-name="semicolon" unicode=";" horiz-adv-x="273" 
d="M149 -34q0 17 -17 17h-20q-23 0 -38.5 17t-15.5 42q0 29 20 48.5t50 19.5q36 0 58 -28t22 -73q0 -76 -59 -157q-26 -35 -44 -35q-20 0 -20 20q0 7 8 18q56 74 56 111zM126 321q-26 0 -44 18.5t-18 44.5t18 44.5t44 18.5t44.5 -18.5t18.5 -44.5t-18.5 -44.5t-44.5 -18.5z
" />
    <glyph glyph-name="less" unicode="&#x3c;" horiz-adv-x="500" 
d="M33 362l434 203v-73l-355 -162l354 -162l1 -73l-434 203v64z" />
    <glyph glyph-name="equal" unicode="=" horiz-adv-x="500" 
d="M33 386v65h434v-65h-434zM33 233v65h434v-65h-434z" />
    <glyph glyph-name="greater" unicode="&#x3e;" horiz-adv-x="500" 
d="M467 298l-434 -203v74l355 161l-354 162l-1 73l434 -203v-64z" />
    <glyph glyph-name="question" unicode="?" horiz-adv-x="600" 
d="M282 -17q-26 0 -44.5 18.5t-18.5 44.5t18.5 44.5t44.5 18.5t44 -18.5t18 -44.5t-18 -44.5t-44 -18.5zM138 503q0 -26 26 -43q-1 4 -1 10q0 14 10.5 23.5t26.5 9.5q44 0 44 -44q0 -29 -23 -48.5t-57 -19.5q-44 0 -72.5 29.5t-28.5 75.5q0 84 71.5 138.5t183.5 54.5
q111 0 178.5 -52t67.5 -137q0 -107 -106 -161q-18 -9 -46 -21q-59 -25 -80.5 -48t-21.5 -61q0 -28 -5 -38q-8 -15 -32 -15q-42 0 -42 52q0 48 24 82q30 41 110 85q72 39 93 63t21 65q0 55 -45 88.5t-119 33.5q-75 0 -126 -35.5t-51 -86.5z" />
    <glyph glyph-name="at" unicode="@" horiz-adv-x="692" 
d="M397 201q0 8 1 14q-38 -59 -117 -59q-48 0 -77.5 32.5t-29.5 84.5q0 91 66 160.5t153 69.5q20 0 44 -6l20 -5q4 -2 10 -2q5 0 17 5q16 7 23 7q15 0 15 -13q0 -3 -2 -11l-5 -19l-57 -213q-3 -12 -3 -19q0 -18 19 -18q37 0 69 48q45 67 45 155q0 83 -54.5 138t-137.5 55
q-117 0 -203.5 -93.5t-86.5 -219.5q0 -98 63 -163.5t158 -65.5q56 0 92.5 13.5t91.5 53.5q20 15 33 15q19 0 19 -18q0 -19 -26 -39q-99 -78 -218 -78q-121 0 -201.5 80.5t-80.5 201.5q0 146 108.5 254.5t256.5 108.5q112 0 182.5 -66t70.5 -172q0 -119 -87 -208
q-53 -54 -111 -54q-26 0 -43 13t-17 33zM418 337l27 100q-30 15 -58 15q-58 0 -101.5 -51t-43.5 -119q0 -69 60 -69q83 0 116 124z" />
    <glyph glyph-name="A" unicode="A" horiz-adv-x="746" 
d="M523 113l-36 98q-6 16 -12.5 20t-26.5 4h-178q-20 0 -27.5 -7t-19.5 -38l-29 -77q-4 -11 -4 -21q0 -32 39 -32q10 0 28.5 2t27.5 2q41 0 41 -35q0 -33 -45 -33q-8 0 -22 2l-50 7q-14 2 -46 2q-35 0 -49 -2l-42 -6q-28 -4 -41 -4q-39 0 -39 33q0 35 38 35q8 0 12 -1h13
q27 0 41 21q6 8 20 47l186 503q16 42 63 42q46 0 61 -42l179 -496q17 -47 31 -62t40 -15q8 0 12 1l28 2q38 0 38 -32q0 -34 -38 -34q-11 0 -29 2q-63 7 -94 7q-37 0 -120 -8q-21 -2 -32 -2q-40 0 -40 34t44 34q9 0 26.5 -2t26.5 -2q33 0 33 27q0 4 -8 26zM451 317l-90 276
l-92 -276q-2 -6 -2 -7q0 -9 15 -9h159q12 0 12 8q0 2 -2 8z" />
    <glyph glyph-name="B" unicode="B" horiz-adv-x="692" 
d="M607 510q0 -102 -116 -144q42 -13 69 -29q81 -47 81 -141q0 -92 -71 -146.5t-190 -54.5q-43 0 -109 5t-97 5q-27 0 -51 -3l-47 -6q-2 0 -7 -1h-7q-43 1 -43 36q0 32 31 32q8 0 27 -3q13 -2 21 -2q51 0 51 74v402q0 75 -51 75q-9 0 -21 -2q-18 -3 -27 -3q-31 0 -31 32
q0 35 46 35h13l49 -7q21 -3 57 -3q38 0 108 6q47 4 101 4q101 0 157.5 -42.5t56.5 -118.5zM224 467q0 -53 9.5 -65.5t52.5 -12.5h56q177 0 177 115q0 105 -146 105q-102 0 -125.5 -13t-23.5 -67v-62zM224 264v-111q0 -65 22 -80t120 -15q187 0 187 140q0 129 -180 129h-83
q-54 0 -62 -24q-4 -12 -4 -39z" />
    <glyph glyph-name="C" unicode="C" 
d="M338 689q111 0 181 -85l-1 11v11q-1 6 -1 7q-2 22 -2 20q0 34 32 34q34 0 34 -42q0 -8 -4 -48q-5 -50 -5 -69q0 -27 3 -55l4 -38v-10q0 -45 -36 -45q-39 0 -38 43l1 36q2 72 -45 117t-123 45q-99 0 -155 -76t-56 -210q0 -137 57.5 -213.5t160.5 -76.5q56 0 100.5 27
t62.5 71q12 29 12 78q0 46 38 46q41 0 41 -46q0 -107 -74 -175t-191 -68q-135 0 -215.5 95t-80.5 253q0 163 82.5 263t217.5 100z" />
    <glyph glyph-name="D" unicode="D" horiz-adv-x="728" 
d="M149 534q0 75 -51 75q-9 0 -21 -2q-18 -3 -27 -3q-31 0 -31 32q0 35 45 35q5 0 13 -1l53 -7q30 -4 64 -4q28 0 56 3l65 7q19 2 50 2q91 0 152 -26q80 -34 126.5 -118t46.5 -195q0 -98 -37 -176.5t-101 -115.5q-77 -45 -186 -45q-22 0 -45 2l-69 6q-35 3 -73 3
q-33 0 -54 -3l-48 -7q-2 0 -7 -1h-8q-43 0 -43 35q0 14 9 23.5t22 9.5q11 0 27 -3q7 -2 21 -2q51 0 51 75v401zM233 544v-423q0 -46 45 -56q15 -4 84 -4q120 0 174 65q65 78 65 206q0 100 -39.5 169.5t-108.5 89.5q-44 13 -106 13q-79 0 -96.5 -9t-17.5 -51z" />
    <glyph glyph-name="E" unicode="E" horiz-adv-x="673" 
d="M149 534q0 74 -51 74q-14 0 -21 -2q-16 -3 -27 -3q-13 0 -22 9.5t-9 23.5q0 35 42 35q1 0 15 -1q150 -10 140 -10h10l241 7q7 0 52 3q16 1 29 1q52 0 52 -46q0 -8 -4 -51q-3 -32 -3 -59q0 -35 2 -49q4 -29 4 -43q0 -38 -36 -38t-36 53v52q0 84 -35 99q-26 11 -134 11
q-71 0 -84 -3q-43 -11 -43 -60v-45v-22q-1 -14 -1 -20v-13q0 -40 18 -46q7 -2 24 -2h41q63 0 63 43q0 12 -3 31t-3 34q0 40 36 40t36 -43q0 -8 -7 -62q-6 -46 -6 -81q0 -20 4 -71q1 -8 5 -35q3 -22 3 -35q0 -36 -36 -36q-35 0 -35 42q0 11 2.5 32t2.5 32q0 43 -57 43h-45
q-29 0 -35.5 -10t-6.5 -43v-62q0 -16 1 -43q1 -33 1 -44q1 -40 16 -50q11 -7 52 -7h136q59 0 81 17.5t22 65.5q0 15 -1.5 44.5t-1.5 44.5q0 45 36 45q38 0 38 -46q0 -18 -2 -55t-2 -55q0 -14 1.5 -41.5t1.5 -41.5q0 -47 -46 -47q-11 0 -35 2q-12 1 -44 1q7 0 -78 2t-147 2
q-94 0 -184 -6q-4 0 -9 -1h-6q-42 0 -42 36q0 32 31 32q5 0 27 -2q11 -3 21 -3q51 0 51 75v401z" />
    <glyph glyph-name="F" unicode="F" horiz-adv-x="619" 
d="M148 291v84l-1 159q0 74 -51 74q-13 0 -20 -2q-16 -3 -26 -3q-13 0 -22 9.5t-9 23.5q0 35 42 35q5 0 15 -1l69 -7q39 -4 87 -4q26 0 112 3l115 4q23 1 54 3q14 1 30 1q53 0 53 -47q0 -18 -5 -55t-5 -56q0 -16 2 -40t2 -44q0 -41 -36 -41q-37 0 -37 47q0 14 1.5 43t1.5 43
q0 53 -30 67t-142 14q-95 0 -108 -17q-10 -13 -10 -92v-74q0 -28 7.5 -34.5t41.5 -6.5h33q65 0 65 48q0 11 -2.5 30t-2.5 29q0 38 36 38q34 0 34 -44q0 -6 -2 -24l-6 -54q-4 -36 -4 -54q0 -41 9 -104q3 -21 3 -40q0 -39 -36 -39q-34 0 -34 42q0 10 1.5 30t1.5 30
q0 31 -17 40q-11 7 -46 7h-31q-35 0 -43 -8t-8 -44v-119q0 -47 10.5 -63.5t39.5 -16.5q7 0 22 1t22 1q46 0 46 -34q0 -14 -10.5 -24t-25.5 -10q-16 0 -47 5q-44 7 -100 7q-36 0 -77 -6l-34 -5q-3 0 -7 -1h-6q-44 0 -44 36q0 32 31 32q4 0 26 -2q11 -3 21 -3q27 0 37.5 16.5
t11.5 58.5z" />
    <glyph glyph-name="G" unicode="G" horiz-adv-x="710" 
d="M335 689q100 0 181 -75q-2 14 -2 16q-2 20 -2 22q0 33 33 33q36 0 36 -43q0 -14 -1 -21l-7 -48q-3 -21 -3 -45q0 -19 4 -81v-9q0 -45 -37 -45q-35 0 -35 49v30q0 69 -45.5 109t-122.5 40q-97 0 -152 -75t-55 -206q0 -139 56.5 -217t156.5 -78q77 0 119 45t42 128
q0 34 -11.5 47.5t-40.5 13.5q-8 0 -23 -1t-23 -1q-48 0 -48 34q0 35 41 35q13 0 29 -2q63 -8 101 -8q49 0 104 9q12 2 27 2q40 0 40 -33q0 -14 -10.5 -24t-24.5 -10q-12 0 -18 1q-2 0 -7 1h-8q-44 0 -44 -98v-80q0 -26 2 -47t2 -33q0 -41 -36 -41q-35 0 -35 35l2 24
q1 9 2 31q-23 -31 -36 -43q-58 -52 -161 -52q-129 0 -208 96t-79 251q0 166 80.5 265t216.5 99z" />
    <glyph glyph-name="H" unicode="H" horiz-adv-x="783" 
d="M231 385h320v147q0 75 -51 75q-6 0 -21.5 -3t-26.5 -3q-32 0 -32 33q0 36 43 36q14 0 51 -6t68 -6q50 0 100 7q29 4 38 4q44 0 44 -35q0 -32 -31 -32q-8 0 -24 2.5t-24 2.5q-51 0 -51 -75v-399q0 -75 50 -75q8 0 24.5 2.5t24.5 2.5q31 0 31 -32q0 -36 -44 -36q-9 0 -39 6
q-35 7 -76 7q-55 0 -93 -6q-44 -7 -48 -7q-44 0 -44 36q0 33 32 33q8 0 24 -2.5t24 -2.5q42 0 50 55q1 7 1 90v113h-320v-114q0 -83 1 -90q8 -55 50 -55q8 0 24.5 2.5t24.5 2.5q31 0 31 -32q0 -36 -44 -36q-7 0 -43 6q-48 8 -84 8q-42 0 -90 -8l-24 -4q-12 -2 -13 -2
q-46 0 -46 36q0 13 9.5 23t22.5 10q9 0 27 -3q11 -3 21 -3q51 0 51 75v401q0 75 -51 75q-7 0 -22 -3t-26 -3q-13 0 -22.5 10t-9.5 23q0 35 46 35q9 0 37 -5q38 -7 93 -7q21 0 62.5 6t61.5 6q44 0 44 -36q0 -14 -9 -23.5t-22 -9.5q-11 0 -27 3t-22 3q-49 0 -50 -75z" />
    <glyph glyph-name="I" unicode="I" horiz-adv-x="382" 
d="M149 534q0 74 -51 74q-14 0 -21 -2q-16 -3 -27 -3q-13 0 -22 9.5t-9 23.5q0 35 44 35q6 0 14 -1l53 -7q30 -4 62 -4q31 0 68 5l45 6q8 1 14 1q44 0 44 -35q0 -14 -9 -23.5t-22 -9.5q-10 0 -27 3q-7 2 -21 2q-51 0 -51 -74v-401q0 -75 51 -75q8 0 21 2q19 3 27 3
q31 0 31 -32q0 -36 -44 -36h-7q-4 1 -7 1l-52 8q-26 4 -55 4q-42 0 -75 -5l-46 -7q-2 0 -7 -1h-8q-43 0 -43 36q0 32 31 32q5 0 27 -2q11 -3 21 -3q51 0 51 75v401z" />
    <glyph glyph-name="J" unicode="J" horiz-adv-x="619" 
d="M155 223q0 16 14 27q-9 5 -15 5q-22 0 -38.5 -23.5t-16.5 -54.5q0 -55 43 -91t110 -36q151 0 168 136q7 57 7 157v32l-1 159q0 74 -51 74q-14 0 -21 -2q-16 -3 -27 -3q-13 0 -22 9.5t-9 23.5q0 35 44 35q6 0 14 -1l53 -7q30 -4 62 -4q30 0 68 5l46 6q4 1 14 1
q44 0 44 -35q0 -33 -32 -33q-10 0 -27 3q-7 2 -21 2q-51 0 -51 -74v-191q0 -150 -12 -201q-11 -45 -45 -83q-73 -81 -198 -81q-105 0 -170.5 54.5t-65.5 140.5q0 64 40.5 107.5t100.5 43.5q43 0 70 -22.5t27 -58.5q0 -25 -16 -43.5t-38 -18.5q-19 0 -33.5 12.5t-14.5 29.5z
" />
    <glyph glyph-name="K" unicode="K" horiz-adv-x="783" 
d="M233 340l282 240q11 9 11 17q0 11 -19 11q-8 0 -11 -1q-36 -4 -53 -4q-36 0 -36 35q0 33 43 33q23 0 41 -2l53 -6q35 -4 53 -4q36 0 89 8q27 4 40 4q38 0 38 -34t-35 -34q-3 0 -10 1h-11q-5 1 -15 1q-38 0 -68 -25l-189 -158q-12 -10 -12 -18q0 -5 10 -17l15 -23
l160 -218q64 -87 96 -87q2 0 6 1h5q27 3 33 3q36 0 36 -34t-39 -34l-50 6q-37 4 -84 4q-54 0 -113 -6q-39 -4 -44 -4q-37 0 -37 33q0 36 39 36q11 0 31 -2q39 -4 45 -4q24 0 24 10q0 7 -9 19l-186 253q-6 8 -11 8q-4 0 -13 -8l-105 -92q-1 -18 -1 -41q0 -87 1 -93
q8 -57 50 -57q6 0 22 3t27 3q13 0 22 -9.5t9 -23.5q0 -35 -44 -35h-7q-4 1 -7 1l-56 8q-21 3 -65 3q-32 0 -53 -3l-55 -8q-2 0 -6 -1h-6q-45 0 -45 35q0 32 31 32q9 0 27 -3q12 -2 21 -2q50 0 50 75q0 -2 1 70v88v84v89l-1 70q0 75 -50 75q-10 0 -21 -3q-18 -3 -27 -3
q-32 0 -32 33q0 35 45 35q5 0 13 -1l48 -6q32 -4 54 -4q27 0 81 6t62 6q42 0 42 -35q0 -14 -9 -23.5t-22 -9.5q-10 0 -27 3q-7 2 -21 2q-35 0 -44 -24.5t-8 -119.5z" />
    <glyph glyph-name="L" unicode="L" 
d="M233 144q0 -59 12 -70q9 -9 23.5 -11t65.5 -2h88q69 0 92 18.5t23 74.5q0 15 -1 35q-2 39 -2 47q0 44 35 44q42 0 42 -40q0 -12 -1 -19l-7 -51q-3 -22 -3 -46q0 -14 2.5 -41.5t2.5 -41.5q0 -45 -51 -45q-10 0 -46 2q-24 1 -74 2l-75 1h-160q-24 0 -80 -2q-8 0 -27.5 -2
t-30.5 -2q-42 0 -42 36q0 32 31 32q8 0 24 -2.5t24 -2.5q51 0 51 75v401q0 74 -51 74q-14 0 -21 -2q-16 -3 -27 -3q-13 0 -22 9.5t-9 23.5q0 35 43 35q6 0 15 -1l53 -6q44 -5 65 -5q26 0 64 5l46 6q8 1 13 1q45 0 45 -35q0 -14 -9 -23.5t-22 -9.5q-10 0 -27 3q-7 2 -21 2
q-51 0 -51 -74v-390z" />
    <glyph glyph-name="M" unicode="M" horiz-adv-x="947" 
d="M319 596l154 -506l169 539q13 42 45 42h5q10 0 26 -3q20 -5 26 -5q16 -2 44 -2q30 0 47 3l35 6q3 1 12 1q46 0 46 -35q0 -32 -32 -32q-8 0 -23.5 2.5t-23.5 2.5q-51 0 -51 -75v-70l-1 -88v-85l1 -158q0 -75 50 -75q10 0 22 3q22 2 26 2q32 0 32 -32q0 -36 -43 -36
q2 0 -15 2q-69 8 -117 8q-47 0 -90 -7q-18 -3 -32 -3q-39 0 -39 33q0 34 40 34q10 0 15 -1q22 -2 26 -2q36 0 45 75q2 16 2 102q0 33 1 96l2 90v177q0 6 -5 6q-3 0 -6 -6l-184 -571q-12 -38 -56 -38q-26 0 -38.5 7.5t-19.5 30.5l-181 571q-3 6 -7 6t-4 -6l6 -465
q1 -73 40 -73q11 0 30 4h12q39 0 39 -35t-40 -35q-7 0 -21 2q-22 3 -47 7q-20 3 -51 3q-55 0 -71 -3l-42 -8q-2 0 -6 -1h-6q-46 0 -46 35q0 14 9 23.5t22 9.5q11 0 26 -3t22 -3q51 0 51 75v402q0 75 -51 75q-8 0 -24 -2.5t-24 -2.5q-31 0 -31 32q0 35 45 35q4 0 13 -1l35 -4
q26 -3 49 -3q19 0 51.5 4t47.5 4q39 0 52 -49z" />
    <glyph glyph-name="N" unicode="N" horiz-adv-x="764" 
d="M296 626l269 -559v403q0 78 -1 86q-9 52 -50 52q-8 0 -24 -2.5t-24 -2.5q-13 0 -22.5 9.5t-9.5 22.5q0 36 45 36q9 0 13 -1l45 -6q30 -4 56 -4t69 6q15 2 35 5q2 0 7 1h7q43 0 43 -35q0 -34 -40 -34q-7 0 -11 1h-10q-30 0 -39 -13t-11 -57l-2 -57l-2 -102v-267
q0 -69 -15.5 -97t-53.5 -28q-49 0 -83 70l-262 545v-465q0 -75 51 -75q8 0 24 2.5t24 2.5q32 0 32 -33q0 -35 -45 -35h-6q-5 1 -7 1l-41 6q-34 5 -64 5q-26 0 -67 -5l-49 -6q-2 0 -7 -1h-8q-43 0 -43 35q0 31 32 31q5 0 27 -2q11 -3 21 -3q51 0 51 75v70l1 88v86l-1 158
q0 75 -52 75q-7 0 -20 -2q-19 -3 -28 -3q-32 0 -32 33q0 35 43 35q6 0 16 -1q50 -5 77 -5q15 0 45 3t45 3q31 0 41 -21z" />
    <glyph glyph-name="O" unicode="O" horiz-adv-x="655" 
d="M326 -22q-133 0 -210.5 96t-77.5 260q0 166 78 260.5t215 94.5q131 0 208.5 -92t77.5 -249q0 -170 -78.5 -270t-212.5 -100zM328 617q-96 0 -149 -74t-53 -208q0 -136 53 -210.5t148 -74.5q93 0 147.5 77.5t54.5 210.5q0 134 -52 206.5t-149 72.5z" />
    <glyph glyph-name="P" unicode="P" 
d="M149 133v401q0 74 -51 74q-8 0 -21 -2q-19 -3 -27 -3q-32 0 -32 33q0 35 44 35q7 0 15 -1l49 -6q24 -3 60 -3q25 0 60 3q82 7 124 7q64 0 110 -10q66 -14 103.5 -62t37.5 -116q0 -94 -64.5 -144t-186.5 -50h-71q-33 0 -39 1h-2q-16 0 -20.5 -5.5t-4.5 -25.5v-20
q0 -127 7.5 -154t43.5 -27q11 0 21 3q22 2 27 2q31 0 31 -32q0 -36 -44 -36l-14 2l-50 7q-21 3 -63 3q-35 0 -57 -3l-58 -8q-2 0 -6 -1h-7q-45 0 -45 35q0 14 9 23.5t22 9.5q11 0 27 -3q7 -2 21 -2q51 0 51 75zM240 586q-7 -10 -7 -55v-148q0 -27 38 -31q-3 0 58 0
q71 0 118 11q89 21 89 117q0 127 -162 127q-120 0 -134 -21z" />
    <glyph glyph-name="Q" unicode="Q" horiz-adv-x="655" 
d="M617 340q0 -234 -161 -333v-76q0 -71 58 -71q33 0 45 17q8 12 10 46q2 47 36 47q39 0 39 -49q0 -55 -35.5 -88.5t-92.5 -33.5q-126 0 -126 116v70q-31 -7 -62 -7q-133 0 -211.5 95t-78.5 256q0 168 78 264t215 96q132 0 209 -94t77 -255zM457 141v-53q29 36 42 69
q30 80 30 185q0 131 -52 203t-146 72q-98 0 -153 -75t-55 -210q0 -188 92 -261q-27 44 -27 84q0 49 40.5 82.5t99.5 33.5q61 0 95 -34.5t34 -95.5zM329 43q25 0 62 10v77q0 79 -67 79q-36 0 -59 -22t-23 -57q0 -39 24 -63t63 -24z" />
    <glyph glyph-name="R" unicode="R" horiz-adv-x="728" 
d="M537 368q-29 -14 -74 -24q59 -11 81.5 -44t22.5 -109v-46q-1 -4 -1 -12q0 -72 46 -72q47 0 47 86v30l-1 25v14q0 29 4 40q8 17 31 17q36 0 36 -42q0 -1 -1 -22l-1 -21q-1 -21 -1 -27v-25q1 -6 1 -18q0 -58 -32.5 -90.5t-90.5 -32.5q-118 0 -118 119v30l1 34v22
q0 67 -25.5 88.5t-105.5 21.5h-93q-32 0 -32 -39v-77q0 -74 2 -84q9 -50 50 -50q14 0 21 2q17 3 26 3q32 0 32 -34q0 -36 -43 -36l-15 2l-54 7q-31 4 -55 4q-30 0 -70 -5l-48 -6q-16 -2 -15 -2q-43 0 -43 36q0 32 31 32q5 0 27 -2q11 -3 21 -3q51 0 51 75v401q0 75 -51 75
q-8 0 -24 -2.5t-24 -2.5q-13 0 -22 9.5t-9 22.5q0 35 44 35q4 0 14 -1l51 -5q20 -2 50 -2q31 0 69 2l76 4q38 2 70 2q220 0 220 -168q0 -99 -76 -135zM260 377h94q84 0 126 24q51 29 51 97q0 114 -156 114q-83 0 -112.5 -12.5t-30.5 -49.5l-1 -32v-115q0 -17 6 -21.5
t23 -4.5z" />
    <glyph glyph-name="S" unicode="S" horiz-adv-x="619" 
d="M307 689q98 0 160 -63v14q0 39 31 39q34 0 34 -43v-6q0 -2 -3 -30t-3 -67q0 -5 2 -32l3 -40q1 -5 1 -14q0 -48 -37 -48q-39 0 -39 40v5l2 27q1 14 1 22q0 60 -40.5 94t-111.5 34q-65 0 -103.5 -32t-38.5 -86q0 -63 57 -93q32 -16 112 -29q119 -19 163 -52q66 -49 66 -139
q0 -94 -67.5 -153t-174.5 -59q-114 0 -189 72q0 -4 1 -9v-6q2 -16 2 -21q0 -37 -35 -37q-38 0 -38 42q0 5 1 8l4 52q3 39 3 50q0 20 -5 60t-5 60q0 45 38 45q39 0 39 -45v-18q-1 -8 -1 -23q0 -75 48 -119t130 -44q76 0 121 36t45 98q0 95 -120 116l-57 10q-85 15 -132 35
q-43 19 -68.5 59.5t-25.5 91.5q0 88 64 143t166 55z" />
    <glyph glyph-name="T" unicode="T" 
d="M357 132q0 -75 51 -75q8 0 24 2.5t24 2.5q13 0 22.5 -9.5t9.5 -22.5q0 -35 -45 -35h-6q-5 1 -7 1l-49 7q-28 4 -63 4q-38 0 -67 -4l-50 -7q-3 0 -7 -1h-7q-44 0 -44 35q0 32 32 32q8 0 24 -2.5t24 -2.5q50 0 50 75v70l1 88v85l-1 163q0 71 -73 71h-31q-72 0 -72 -70
q0 -25 1 -34l4 -37q1 -9 1 -25q0 -63 -39 -63q-37 0 -37 46q0 13 2 45q3 48 3 61q0 25 -2 52q-4 53 -4 45q0 42 38 42q14 0 65 -3q5 0 82 -2l114 -2q20 0 107 2q19 0 65 3q41 3 64 3q50 0 50 -41v-2q0 -10 -2.5 -37t-5.5 -58v-11q0 -15 3 -47q4 -42 4 -52q0 -41 -39 -41
q-38 0 -38 50q0 18 3 53.5t3 53.5q0 69 -79 69h-28q-37 0 -53 -15.5t-18 -51.5l-3 -70z" />
    <glyph glyph-name="U" unicode="U" horiz-adv-x="710" 
d="M207 513l-2 -64l-4 -81v-154q0 -70 15.5 -102t58.5 -50q40 -17 82 -17q55 0 94 21t50.5 56.5t12.5 90.5l2 257q0 76 -2 86q-9 51 -51 51q-7 0 -20 -2q-19 -3 -27 -3q-13 0 -22.5 10t-9.5 23q0 36 44 36q7 0 14 -1l59 -8q22 -3 50 -3q27 0 45 3l43 7q18 3 24 3
q42 0 42 -34t-41 -34h-11q-3 1 -10 1q-30 0 -37 -30t-7 -154v-175q0 -65 -4 -94q-8 -50 -34 -87q-60 -87 -203 -87q-176 0 -227 115q-16 35 -16 109q0 36 3 106.5t3 106.5v53q0 73 -1 82q-7 55 -39 55h-7q-5 -1 -9 -1.5t-13 -0.5q-42 0 -42 34t38 34q16 0 34 -3q49 -8 91 -8
q43 0 99 9q12 2 26 2q41 0 41 -34t-35 -34q-8 0 -24 2.5t-24 2.5q-32 0 -43 -34q-5 -15 -6 -61z" />
    <glyph glyph-name="V" unicode="V" horiz-adv-x="728" 
d="M243 510l141 -427l134 418q15 48 15 68q0 38 -40 38q-7 0 -22 -2.5t-22 -2.5q-39 0 -39 35q0 34 38 34q21 0 63.5 -6t64.5 -6q36 0 89 9q17 3 32 3q37 0 37 -35q0 -34 -37 -34q-1 0 -4 1l-23 2h-5q-17 0 -27.5 -16.5t-29.5 -71.5l-164 -481q-17 -49 -63 -49q-48 0 -65 49
l-179 503q-13 37 -21 47q-14 17 -44 17q-6 0 -19 -1t-19 -1q-39 0 -39 35q0 36 40 36q12 0 27 -3q56 -11 99 -11q25 0 74 6.5t73 6.5q37 0 37 -33q0 -36 -38 -36q-2 0 -9 1h-10q-6 1 -17 1q-44 0 -44 -28q0 -14 5 -30z" />
    <glyph glyph-name="W" unicode="W" horiz-adv-x="928" 
d="M217 513l82 -423l103 520q13 68 67 68q57 0 68 -60l100 -535l85 415q9 44 9 67q0 41 -42 41q-9 0 -26 -1t-26 -1q-43 0 -43 34q0 33 42 33q16 0 33 -2q82 -10 108 -10q20 0 59.5 6t59.5 6q37 0 37 -35q0 -32 -36 -32q-6 0 -18 1.5t-18 1.5q-21 0 -30.5 -16t-22.5 -72
l-112 -477q-13 -55 -62 -55q-52 0 -65 68l-101 529l-111 -543q-11 -54 -57 -54q-47 0 -60 55l-119 498q-9 38 -22.5 51.5t-42.5 13.5h-7l-22 -2q-32 0 -32 33q0 35 35 35q14 0 32 -3q54 -9 105 -9q24 0 110 10q15 2 29 2q36 0 36 -33q0 -36 -44 -36q-9 0 -27.5 2t-27.5 2
q-35 0 -35 -33q0 -12 3 -28z" />
    <glyph glyph-name="X" unicode="X" horiz-adv-x="783" 
d="M169 131l177 218l-183 215q-34 40 -62 40q-8 0 -22.5 -1t-22.5 -1q-41 0 -41 36q0 34 43 34q5 0 63 -10q28 -4 56 -4q53 0 118 10q20 3 35 3q40 0 40 -34q0 -35 -40 -35q-3 0 -9 1h-9q-13 2 -28.5 4t-20.5 2q-12 0 -12 -7q0 -4 6 -12l139 -182l137 174q8 10 8 18t-13 8
q-8 0 -15 -1q-29 -4 -46 -4q-40 0 -40 35q0 33 37 33q15 0 38 -4q46 -8 96 -8q31 0 87 9q25 4 32 4q41 0 41 -35t-37 -35q-7 0 -21 2.5t-21 2.5q-24 0 -59 -43l-176 -215l188 -228q49 -60 80 -60q2 0 7 1h6q6 1 16 1q37 0 37 -33q0 -35 -39 -35q-10 0 -35 4q-57 9 -93 9
q-40 0 -88 -8q-30 -5 -48 -5q-43 0 -43 36q0 34 41 34q17 0 34 -1l31 -2h7q16 0 16 10q0 8 -19 32l-149 187l-146 -187q-18 -23 -18 -32q0 -11 14 -11h2l23 2l30 2q15 1 25 1q44 0 44 -35q0 -36 -38 -36q-12 0 -39 5q-49 9 -98 9q-56 0 -111 -10q-22 -4 -35 -4q-42 0 -42 36
q0 35 37 35q6 0 18.5 -1.5t18.5 -1.5q23 0 39.5 12.5t51.5 55.5z" />
    <glyph glyph-name="Y" unicode="Y" horiz-adv-x="728" 
d="M325 199v19q-1 16 -1 27l-194 307q-19 30 -24 35q-15 15 -37 15q-12 0 -18 -1h-9q-7 -1 -10 -1q-46 0 -46 35q0 36 40 36q16 0 40 -4q48 -8 90 -8q31 0 93 9q21 3 36 3q41 0 41 -35q0 -34 -49 -34l-10 1h-25l-20 1q-12 1 -12 -8q0 -4 1 -5.5t5 -8.5l153 -260l155 260
q5 8 5 16q0 9 -13 9h-2l-18 -1l-26 -3q-17 -2 -26 -2q-41 0 -41 35t40 35q15 0 36 -3q56 -8 97 -8q43 0 95 8q20 3 34 3q38 0 38 -35q0 -32 -37 -32q-15 0 -23 2q-16 2 -22 2q-26 0 -42 -24l-15 -23l-197 -309v-42q0 -102 8.5 -127t42.5 -25q8 0 24.5 2.5t24.5 2.5
q31 0 31 -32q0 -36 -45 -36h-6q-4 1 -7 1l-55 7q-31 4 -61 4q-32 0 -61 -4l-51 -7q-2 0 -6 -1h-7q-45 0 -45 35q0 33 32 33q8 0 23.5 -2.5t23.5 -2.5q42 0 51 53q1 9 1 88z" />
    <glyph glyph-name="Z" unicode="Z" horiz-adv-x="619" 
d="M563 574l-441 -515h251q86 0 112.5 16t26.5 67q0 15 -3 41t-3 46q0 40 38 40q36 0 36 -42q0 -11 -3 -42t-3 -60q0 -28 1 -37q4 -35 4 -47q0 -47 -57 -47q-24 0 -46 1q-90 4 -188 4q-49 0 -114 -3q-21 -1 -54 -1q-47 0 -64 12t-17 44q0 31 23 58l422 498h-245
q-62 0 -84.5 -22t-22.5 -81q0 -10 1 -31t1 -31q0 -50 -38 -50q-37 0 -37 41q0 19 4 55.5t4 55.5q0 13 -2 38.5t-2 38.5q0 54 54 52l27 -1q19 -1 54 0h35q25 -1 32 -1l207 1h40q72 0 72 -50q0 -23 -21 -48z" />
    <glyph glyph-name="bracketleft" unicode="[" horiz-adv-x="437" 
d="M110 0v474q0 31 -2 78t-2 76q0 32 9 40q6 5 20 5q13 0 38.5 -2.5t38.5 -2.5q51 0 77 3t50 3q53 0 53 -35q0 -33 -56 -33q-17 0 -49 5t-49 5q-28 0 -37.5 -7.5t-11.5 -34.5l-4 -54q-3 -40 -3 -129v-308q0 -89 3 -129l4 -54q2 -27 13 -35q8 -6 36 -6q17 0 49.5 4.5
t48.5 4.5q56 0 56 -33q0 -35 -53 -35q-20 0 -60 3t-60 3h-8q-13 0 -38.5 -2.5t-37.5 -2.5q-20 0 -26 14q-3 8 -3 31q0 30 2 77t2 77z" />
    <glyph glyph-name="backslash" unicode="\" horiz-adv-x="500" 
d="M26 750h72l356 -833h-72z" />
    <glyph glyph-name="bracketright" unicode="]" horiz-adv-x="437" 
d="M252 -46q3 41 3 129v308q0 88 -3 129l-4 54q-2 27 -11.5 34.5t-37.5 7.5q-17 0 -49.5 -5t-48.5 -5q-56 0 -56 33q0 35 53 35q23 0 50 -3t77 -3q13 0 38.5 2.5t38.5 2.5q20 0 26 -14q3 -8 3 -31q0 -31 -2 -76t-2 -164v-302q0 -116 2 -163.5t2 -76.5q0 -32 -7.5 -38.5
t-21.5 -6.5q-13 0 -38 2.5t-38 2.5q-52 0 -78 -3t-50 -3q-53 0 -53 35q0 33 56 33q15 0 47.5 -4.5t50.5 -4.5q28 0 37.5 7t11.5 34z" />
    <glyph glyph-name="asciicircum" unicode="^" horiz-adv-x="500" 
d="M249 610l-145 -245h-79l177 304h96l177 -304h-80z" />
    <glyph glyph-name="underscore" unicode="_" horiz-adv-x="500" 
d="M0 -133v66h500v-66h-500z" />
    <glyph glyph-name="grave" unicode="`" horiz-adv-x="492" 
d="M169 699q13 0 29 -10l126 -79q21 -13 21 -26q0 -24 -21 -24q1 0 -14 3l-142 62q-35 15 -35 38q0 15 10.5 25.5t25.5 10.5z" />
    <glyph glyph-name="a" unicode="a" horiz-adv-x="564" 
d="M469 -13q-82 0 -101 71q-51 -75 -160 -75q-81 0 -129.5 40t-48.5 107q0 83 71 122q27 15 46.5 19.5t78.5 11.5q84 9 109.5 25t25.5 59q0 41 -28.5 64.5t-79.5 23.5q-45 0 -84 -25q-15 -10 -15 -21q0 -4 9 -10q14 -10 14 -34q0 -20 -14.5 -33t-36.5 -13q-26 0 -43.5 18
t-17.5 44q0 56 55.5 96t134.5 40q182 0 182 -175v-202q0 -48 2 -57q6 -35 34 -35q35 0 35 64v49q0 32 31 32q33 0 33 -48v-5l-1 -57q-2 -96 -102 -96zM358 186l1 71q-22 -20 -46.5 -28t-87.5 -14q-114 -11 -114 -84q0 -38 27.5 -60t74.5 -22q67 0 105.5 36.5t39.5 100.5z
" />
    <glyph glyph-name="b" unicode="b" horiz-adv-x="564" 
d="M169 638q-8 -83 -9 -197q32 42 65 59t83 17q100 0 159 -70t59 -186q0 -127 -62.5 -202.5t-168.5 -75.5q-103 0 -149 77q4 -29 4 -32q0 -36 -35 -36t-35 50q0 14 1 21q0 23 1 49l3 77l2 101l-2 267q-1 37 -7.5 50t-22.5 13q-3 0 -26 -4q-11 -2 -19 -2q-34 0 -34 32
q0 33 40 33q12 0 20 -1l24 -3q16 -2 26 -2q11 0 31 3.5t30 3.5q22 0 22 -28v-14zM168 348q-7 -32 -7 -90q0 -99 16 -136q31 -73 118 -73q69 0 109.5 54.5t40.5 146.5q0 94 -38.5 147.5t-105.5 53.5q-47 0 -85 -29.5t-48 -73.5z" />
    <glyph glyph-name="c" unicode="c" horiz-adv-x="510" 
d="M330 330q0 40 50 46q-5 35 -33.5 55t-73.5 20q-69 0 -111 -55t-42 -146q0 -94 39.5 -147.5t109.5 -53.5q44 0 76.5 25t44.5 69q10 35 12 40q11 20 32 20q17 0 28 -11t11 -28q0 -25 -16 -60t-38 -58q-59 -63 -153 -63q-102 0 -164.5 72t-62.5 189q0 124 64.5 198.5
t171.5 74.5q80 0 133 -43.5t53 -110.5q0 -37 -20.5 -61t-52.5 -24q-25 0 -41.5 15t-16.5 37z" />
    <glyph glyph-name="d" unicode="d" horiz-adv-x="600" 
d="M263 517q99 0 148 -77v101q0 40 -2 49q-5 31 -28 31q-8 0 -22.5 -3t-22.5 -3q-37 0 -37 32q0 33 50 33q8 0 29 -2q32 -3 33 -3q9 0 26 2t26 2q28 0 28 -40v-11q-1 -3 -2 -53q0 -6 -3 -77q-2 -50 -2 -76v-98l2 -167q1 -66 6 -82t24 -16q13 0 20 2q16 2 22 2q37 0 37 -33
q0 -34 -45 -34q-10 0 -30.5 2.5t-30.5 2.5q-3 0 -23 -2q-12 -3 -21 -3q-27 0 -27 36v5l1 17q-53 -71 -154 -71q-102 0 -164 74t-62 194q0 121 61 193.5t163 72.5zM405 164q4 33 4 85q0 67 -5 91q-9 50 -43 78q-40 33 -92 33q-70 0 -109.5 -53t-39.5 -145q0 -95 41 -149.5
t112 -54.5q54 0 90 31.5t42 83.5z" />
    <glyph glyph-name="e" unicode="e" horiz-adv-x="528" 
d="M493 294q0 -38 -5 -46.5t-29 -8.5h-318q-13 0 -17 -3.5t-4 -11.5q0 -75 45 -125t112 -50q44 0 80.5 24t47.5 61l9 29q7 24 33 24q37 0 37 -38q0 -65 -66 -115.5t-150 -50.5q-105 0 -167 70.5t-62 189.5q0 122 66 198t172 76q94 0 155 -63t61 -160zM130 320q0 -14 22 -14
h239q21 0 21 14q0 53 -40 92t-94 39q-56 0 -102 -40.5t-46 -90.5z" />
    <glyph glyph-name="f" unicode="f" horiz-adv-x="346" 
d="M335 591q0 14 10 25q-17 16 -50 16q-43 0 -67.5 -27.5t-24.5 -76.5v-18q0 -13 13 -13h78q33 0 33 -36t-33 -36h-74q-17 0 -17 -18v-280q0 -37 1 -43q5 -27 25 -27q5 0 25 5q14 2 20 2q34 0 34 -33q0 -35 -41 -35q-17 0 -51.5 4t-51.5 4q-30 0 -54 -3q-39 -5 -50 -5
q-43 0 -43 35q0 13 10.5 23t24.5 10q10 0 22.5 -3.5t22.5 -3.5q19 0 24 24t6 116l1 210q0 18 -18 18h-50q-35 0 -35 37q0 35 36 35h57q13 0 13 13v18q0 79 42 121t119 42q63 0 101 -25.5t38 -68.5q0 -22 -14 -35.5t-35 -13.5q-20 0 -33.5 12.5t-13.5 30.5z" />
    <glyph glyph-name="g" unicode="g" horiz-adv-x="546" 
d="M276 517q26 0 59 -8q5 98 114 98q46 0 77 -24t31 -61q0 -24 -15.5 -41t-36.5 -17q-16 0 -28 11t-12 26q0 16 22 33q-16 20 -41 20q-53 0 -54 -66q76 -51 76 -137q0 -69 -52 -115t-130 -46q-55 0 -114 26q-16 7 -27 7q-14 0 -25 -12.5t-11 -29.5q0 -52 105 -52h6q8 0 18 1
h12q95 0 154 -18q55 -17 87 -53t32 -81q0 -73 -67.5 -115.5t-182.5 -42.5t-180.5 40t-65.5 110q0 81 91 115q-81 32 -81 96q0 70 81 96q-26 35 -26 82q0 68 52.5 113t131.5 45zM279 451q-44 0 -75 -26t-34 -65v-6q0 -44 30 -71t78 -27q50 0 81.5 27t31.5 69q0 43 -32 71
t-80 28zM280 63q-80 0 -126 -24t-46 -65t45 -64.5t121 -23.5q80 0 126.5 24t46.5 64q0 42 -44 65.5t-123 23.5z" />
    <glyph glyph-name="h" unicode="h" 
d="M196 644l-4 -194q40 38 73 52.5t78 14.5q86 0 138 -49t52 -129v-167q0 -59 1 -65q4 -50 26 -50q8 0 23 4q6 1 16 1q37 0 37 -33t-48 -33q-13 0 -38 3q-42 5 -68 5t-40 -2q-42 -6 -52 -6q-18 0 -30 10.5t-12 26.5q0 13 10.5 22t24.5 9q11 0 26 -5q9 -3 17 -3q30 0 31 65
q0 12 1 47l1 43v54q0 102 -20 137q-29 52 -102 52q-79 0 -115 -54q-25 -37 -26 -119l-1 -72q0 -6 -1 -20v-19q0 -57 1 -66q5 -49 29 -49q8 0 22.5 3.5t21.5 3.5q32 0 32 -31q0 -35 -44 -35q-14 0 -42 3q-38 4 -65 4q-17 0 -47 -3q-40 -4 -51 -4q-41 0 -41 36q0 30 38 30
q13 0 19 -2q17 -3 24 -3q16 0 21.5 30.5t6.5 124.5l1 179q0 150 -6 189.5t-28 39.5q-7 0 -21 -3t-22 -3q-34 0 -34 32q0 14 12 24t29 10q5 0 34 -3q19 -2 41 -2q9 0 25 2t23 2q23 0 23 -33v-2z" />
    <glyph glyph-name="i" unicode="i" horiz-adv-x="310" 
d="M201 290v-130q0 -50 1 -59q5 -45 27 -45q5 0 25 5q5 2 15 2q38 0 38 -33q0 -14 -12.5 -24t-31.5 -10q-16 0 -48.5 4.5t-48.5 4.5q-26 0 -58 -4q-39 -5 -52 -5q-40 0 -40 34q0 33 34 33q8 0 23.5 -3t23.5 -3q24 0 29 64v87v82v87q-5 63 -30 63q-8 0 -22.5 -3.5t-21.5 -3.5
q-36 0 -36 32q0 34 44 34q19 0 27 -1q32 -4 41 -4q8 0 24.5 2.5t24.5 2.5q29 0 29 -39q0 -4 -1 -12t-1 -12q-1 -8 -2 -62q-1 -41 -1 -84zM149 552q-23 0 -39.5 16.5t-16.5 39.5t16.5 39t39.5 16t39.5 -16t16.5 -39t-16.5 -39.5t-39.5 -16.5z" />
    <glyph glyph-name="j" unicode="j" horiz-adv-x="291" 
d="M-16 -82q0 -21 -18 -39q27 -20 55 -20q56 0 80.5 33t24.5 106l1 314q0 88 -5 108.5t-27 20.5q-11 0 -28 -4q-9 -3 -18 -3q-32 0 -32 32q0 33 42 33q15 0 26 -1q32 -3 45 -3q8 0 25 2.5t25 2.5q29 0 29 -32q0 -5 -1 -20q-1 -18 -1 -29q-1 -16 -3 -72q-2 -63 -2 -97v-226
q0 -60 -5 -89q-9 -47 -36 -80q-48 -58 -134 -58q-60 0 -100 30t-40 75q0 25 14.5 41.5t36.5 16.5q19 0 32.5 -12.5t13.5 -29.5zM152 552q-23 0 -39.5 16.5t-16.5 39.5t16.5 39t39.5 16t40 -16.5t17 -38.5q0 -23 -17 -39.5t-40 -16.5z" />
    <glyph glyph-name="k" unicode="k" horiz-adv-x="619" 
d="M195 253l171 160q9 8 9 18t-13 10q-10 0 -29 -4t-29 -4q-35 0 -35 32q0 35 44 35q11 0 28 -2q69 -8 105 -8q20 0 34 2l41 6q14 2 23 2q49 0 49 -34q0 -32 -34 -32q-8 0 -22.5 2t-22.5 2q-25 0 -52 -25l-105 -96q-11 -10 -11 -16q0 -5 8 -15l128 -166q49 -63 70 -63
q5 0 16.5 2.5t18.5 2.5q36 0 36 -32q0 -34 -46 -34q-18 0 -53.5 4t-53.5 4q-16 0 -46.5 -4t-45.5 -4q-38 0 -38 34q0 32 36 32q10 0 16 -1q18 -5 23 -5q9 0 9 7v3q-1 1 -1 2l-10 14l-13 19l-100 133q-10 13 -16 13q-4 0 -15 -10l-74 -66v-23q0 -48 1 -54q5 -35 28 -35
q10 0 17 1.5t19 1.5q34 0 34 -33t-38 -33q-17 0 -51.5 4.5t-52.5 4.5q-23 0 -53 -4q-38 -5 -51 -5q-39 0 -39 33t38 33q8 0 19 -2q16 -3 22 -3q24 0 27 38l3 39v404q-2 54 -7 68.5t-21 14.5q-5 0 -19 -2q-14 -5 -28 -5q-33 0 -33 31q0 34 39 34q20 0 28 -1q25 -3 33 -3
t23.5 2.5t22.5 2.5h7q32 0 32 -41v-386z" />
    <glyph glyph-name="l" unicode="l" horiz-adv-x="309" 
d="M195 418l1 -311q1 -51 27 -51q6 0 25 5q12 2 16 2q33 0 33 -34q0 -33 -41 -33q-16 0 -51 4t-54 4q-16 0 -48 -4t-47 -4h-5q-42 0 -42 36q0 31 34 31h7q6 -1 9 -1q25 -4 29 -4q18 0 22.5 15.5t5.5 80.5l1 70l3 155l-1 178q-1 30 -3 40q-7 23 -28 23q-3 0 -26 -4
q-11 -2 -18 -2q-34 0 -34 32q0 33 40 33q11 0 19 -1l24 -3q16 -2 27 -2q10 0 30 3.5t30 3.5q23 0 23 -29q0 -10 -1 -15q-7 -77 -7 -218z" />
    <glyph glyph-name="m" unicode="m" horiz-adv-x="928" 
d="M189 470v-29q36 43 68 59.5t80 16.5q98 0 144 -76q34 42 69 59t90 17q57 0 102 -24q50 -27 69 -76q13 -33 13 -104v-97l-1 -75q0 -41 1 -50q5 -36 26 -36q7 0 21 3t21 3q35 0 35 -30q0 -35 -40 -35q-15 0 -45.5 3.5t-46.5 3.5q-17 0 -49.5 -3.5t-49.5 -3.5q-42 0 -42 35
q0 30 32 30q4 0 20 -2q6 -2 16 -2q17 0 21.5 17t5.5 85l1 61v66q0 69 -10.5 100.5t-39.5 49.5t-66 18q-71 0 -99 -49q-22 -39 -22 -136v-71q0 -94 4.5 -117.5t23.5 -23.5q6 0 17.5 2.5t17.5 2.5q14 0 23.5 -9.5t9.5 -23.5q0 -33 -47 -33q-15 0 -44.5 4t-44.5 4q-21 0 -46 -4
t-44 -4q-41 0 -41 34q0 31 30 31q11 0 17 -2q14 -3 21 -3q24 0 25 51l1 47q1 22 1 43q1 18 1 19v83q0 87 -23.5 121t-83.5 34q-66 0 -101 -48q-29 -39 -29 -136v-133q0 -40 1 -47q4 -34 22 -34q5 0 21 4q2 0 6 1h7q39 0 39 -33q0 -32 -45 -32q-17 0 -42 3q-34 4 -58 4
q-12 0 -44 -3q-43 -4 -52 -4q-40 0 -40 34q0 31 38 31h6q4 -1 6 -1l25 -5q1 -1 4 -1q27 0 29 49l2 57v153q0 85 -4.5 106t-24.5 21q-4 0 -28 -5q-10 -2 -16 -2q-37 0 -37 32q0 34 41 34q11 0 30 -2t33 -2q5 0 11 1h7l24 3h3q24 0 24 -29z" />
    <glyph glyph-name="n" unicode="n" 
d="M192 469v-28q60 76 160 76q54 0 102 -27.5t65 -68.5q14 -34 14 -89v-190q0 -43 1 -51q5 -34 27 -34q9 0 23.5 2.5t20.5 2.5q13 0 22.5 -9t9.5 -22q0 -15 -12 -25t-29 -10q-14 0 -46 4t-60 4q-26 0 -43 -2q-50 -6 -53 -6q-40 0 -40 35q0 31 34 31q8 0 18 -2q19 -4 24 -4
q24 0 26 55l2 51l1 61v76q0 53 -5 73q-9 38 -39 59q-33 23 -75 23q-80 0 -115 -57q-24 -39 -24 -133v-133q0 -44 6 -60t22 -16q8 0 22 4t23 4q31 0 31 -34q0 -33 -40 -33q-8 0 -52 6q-22 3 -49 3q-21 0 -56 -4q-44 -5 -50 -5q-42 0 -42 34q0 32 32 32q5 0 18.5 -3t26.5 -3
q30 0 31 58l2 111v121l-2 35q-2 34 -8.5 46.5t-22.5 12.5q-7 0 -20.5 -2.5t-20.5 -2.5q-36 0 -36 32q0 33 45 33q6 0 10 -1l37 -4q16 0 28 2q26 2 27 2q29 0 29 -30z" />
    <glyph glyph-name="o" unicode="o" horiz-adv-x="546" 
d="M269 -17q-105 0 -168 72.5t-63 194.5t63.5 194.5t170.5 72.5q109 0 172 -71t63 -193t-65 -196t-173 -74zM274 451q-70 0 -110 -49t-44 -139v-13q0 -94 39.5 -147.5t110.5 -53.5q73 0 114.5 53.5t41.5 148.5q0 200 -152 200z" />
    <glyph glyph-name="p" unicode="p" horiz-adv-x="600" 
d="M191 471v-32q56 78 153 78q100 0 159 -69t59 -187q0 -127 -62.5 -202.5t-167.5 -75.5q-87 0 -141 61v-83q0 -38 2 -49q6 -31 29 -31q7 0 21 3t21 3q32 0 32 -33t-42 -33q-15 0 -45 4q-22 3 -66 3q-24 0 -40 -2q-40 -5 -53 -5q-17 0 -29 10.5t-12 24.5q0 32 34 32
q6 0 19 -3q17 -4 25 -4q19 0 23.5 19.5t5.5 108.5l1 386q-1 46 -26 46q-7 0 -21.5 -3.5t-22.5 -3.5q-37 0 -37 33q0 32 44 32q11 0 24 -1q25 -2 37 -2q9 0 26 1.5t25 1.5q25 0 25 -28zM206 349q-9 -39 -10 -95q0 -4 -1 -15v-14q0 -67 11 -97.5t43.5 -54.5t80.5 -24
q72 0 111.5 52.5t39.5 149.5q0 200 -142 200q-48 0 -85.5 -29t-47.5 -73z" />
    <glyph glyph-name="q" unicode="q" horiz-adv-x="564" 
d="M399 -5v45q-56 -57 -138 -57q-100 0 -161 73.5t-61 195.5t58.5 193.5t158.5 71.5q93 0 155 -75q-2 20 -2 19q0 43 34 43t34 -52v-21l-4 -119v-191l3 -143q1 -61 7 -79.5t26 -18.5q-1 0 24 5q10 2 16 2q32 0 32 -33t-37 -33q-18 0 -54 3t-54 3t-53.5 -3t-52.5 -3
q-37 0 -37 33q0 32 34 32q12 0 32 -4q10 -2 13 -2q22 0 26 50q1 6 1 65zM398 224v28q-2 67 -9 96q-13 49 -53 78q-34 25 -76 25q-66 0 -103 -52t-37 -145q0 -97 38 -151t106 -54q51 0 88.5 32.5t43.5 81.5q2 17 2 61z" />
    <glyph glyph-name="r" unicode="r" horiz-adv-x="491" 
d="M190 471v-27q52 73 139 73q70 0 113.5 -39.5t43.5 -101.5q0 -44 -22 -71.5t-58 -27.5q-23 0 -39 14t-16 34q0 16 12 28.5t28 12.5q3 0 13 -3q6 12 6 22q0 29 -25.5 49t-63.5 20q-78 0 -104 -70q-16 -43 -16 -130v-66q0 -67 1 -75q5 -57 31 -57q13 0 27 4q11 3 19 3
q32 0 32 -32q0 -35 -41 -35h-4q-15 0 -45.5 3.5t-45.5 3.5q-40 0 -63 -2l-56 -5q-41 0 -41 35q0 31 38 31q10 0 15 -1l15 -3q10 -2 14 -2q25 0 27 46l2 51l-3 227q-3 59 -30 59q-8 0 -22 -3t-22 -3q-33 0 -33 32q0 35 43 35q10 0 30 -2.5t30 -2.5q8 0 26 2q8 2 19 2
q26 0 26 -28z" />
    <glyph glyph-name="s" unicode="s" horiz-adv-x="492" 
d="M250 517q67 0 112 -35v4q0 37 32 37q33 0 33 -32q0 -6 -2 -30q-4 -20 -4 -40q0 -12 3.5 -35t3.5 -35q0 -38 -33 -38q-32 0 -33 32l-1 33q-1 30 -34.5 51.5t-78.5 21.5q-46 0 -77 -23.5t-31 -58.5q0 -64 88 -76l58 -8q170 -23 170 -141q0 -72 -55 -116.5t-144 -44.5
q-83 0 -144 47q1 -10 1 -19q0 -36 -34 -36q-37 0 -37 41q0 -7 6 52q2 14 2 28q0 24 -4 45t-4 33q0 35 32 35q21 0 26.5 -10t6.5 -53t45 -70t112 -27q49 0 81 25t32 63q0 68 -108 79q-103 11 -157 40.5t-54 103.5q0 70 53 113.5t138 43.5z" />
    <glyph glyph-name="t" unicode="t" horiz-adv-x="400" 
d="M314 138l2 64q1 41 36 41t35 -46q0 -109 -28 -152q-38 -58 -125 -58q-80 0 -114 51q-25 37 -25 126v240q0 21 -19 21h-32q-16 0 -26.5 10.5t-10.5 25.5q0 14 10.5 25t23.5 11h39q17 0 17 19v103q0 38 39 38q36 0 36 -38v-107q0 -15 18 -15h109q38 0 38 -35q0 -37 -41 -37
h-110q-14 0 -14 -21v-246q0 -105 69 -105q70 0 73 85z" />
    <glyph glyph-name="u" unicode="u" horiz-adv-x="619" 
d="M447 25v31q-53 -73 -157 -73q-118 0 -164 73q-20 32 -22 75q-1 21 -1 88v83q0 137 -29 137q-6 0 -19 -2.5t-20 -2.5q-35 0 -35 33q0 32 43 32q10 0 29.5 -2t29.5 -2q9 0 31 3q15 2 17 2q31 0 31 -38v-21l-1 -65l-3 -74v-65q0 -87 14 -125q23 -63 110 -63q43 0 76 19.5
t46 51.5q16 39 16 148v55v65q-5 48 -26 48q-11 0 -18 -2h-12q-35 0 -35 31q0 35 39 35q9 0 27.5 -2t27.5 -2q8 0 24 1.5t24 1.5q30 0 30 -32q0 -14 -2 -22q-5 -38 -5 -112v-154q0 -61 1 -68q5 -53 28 -53q7 0 20 2.5t20 2.5q34 0 34 -33q0 -34 -42 -34q-9 0 -26 2
q-25 3 -31 3q-3 0 -21 -2q-12 -3 -21 -3q-28 0 -28 29z" />
    <glyph glyph-name="v" unicode="v" horiz-adv-x="601" 
d="M188 381l117 -312l113 312q10 28 10 36q0 22 -21 22q-8 0 -23.5 -3.5t-23.5 -3.5q-33 0 -33 33q0 35 48 35h8q5 -1 8 -1l42 -6q14 -2 29 -2q20 0 66 5q28 3 40 3q43 0 43 -33t-35 -33q-11 0 -16 2q-15 3 -21 3q-18 0 -37 -48l-141 -360q-18 -46 -61 -46q-41 0 -59 46
l-144 370q-14 37 -33 37q-7 0 -21 -3t-21 -3q-33 0 -33 31q0 36 46 36q8 0 12 -1l42 -4q21 -2 42 -2q17 0 50 3l33 3q5 1 14 1q44 0 44 -34q0 -32 -38 -32q-12 0 -17 1q-19 4 -24 4q-16 0 -16 -14q0 -7 4 -20z" />
    <glyph glyph-name="w" unicode="w" horiz-adv-x="801" 
d="M179 360l73 -304l78 352q12 56 26.5 74.5t44.5 18.5q31 0 45.5 -19t26.5 -74l75 -352l74 304q7 29 7 50v2q0 27 -23 27q-9 0 -26 -3.5t-26 -3.5q-37 0 -37 33q0 35 49 35q7 0 15 -1l41 -5q16 -2 50 -2q27 0 52 3l33 4q4 1 11 1q43 0 43 -34q0 -33 -33 -33q-11 0 -17 2
q-16 2 -18 2q-27 0 -56 -111l-68 -257q-12 -47 -28 -65.5t-44 -18.5q-53 0 -71 84l-75 356l-78 -350q-11 -50 -28 -70.5t-46 -20.5q-47 0 -63 62l-96 360q-9 32 -28 32q-6 0 -18 -3q-16 -2 -22 -2q-33 0 -33 32q0 35 45 35q8 0 11 -1l43 -6q14 -2 37 -2q28 0 64 4q45 5 52 5
q44 0 44 -34q0 -33 -37 -33q-7 0 -25 2q-13 4 -25 4q-26 0 -26 -30q0 -20 7 -49z" />
    <glyph glyph-name="x" unicode="x" 
d="M129 100l139 159l-139 164q-14 16 -34 16q-8 0 -12 -1l-17 -4q-4 -1 -14 -1q-33 0 -33 32q0 34 41 34h3q1 0 50 -4q25 -2 42 -2t49 3t48 3q41 0 41 -34q0 -32 -38 -32q-8 0 -15 2l-15 4h-6q-4 0 -4 -2q2 -6 9 -14l91 -110l95 110q9 10 9 14q-1 2 -5 2q-5 0 -16.5 -3
t-17.5 -3q-36 0 -36 34q0 33 42 33q-2 0 53 -5q22 -2 47 -2t53 3t40 3q44 0 44 -34q0 -33 -34 -33q-8 0 -23 4t-23 4q-24 0 -66 -48l-116 -132l156 -184q14 -17 34 -17q6 0 18.5 2t18.5 2q36 0 36 -32q0 -35 -42 -35h-8l-39 5q-16 2 -48 2q-27 0 -54 -3l-36 -4h-11
q-47 0 -47 32q0 35 37 35q13 0 37 -4q2 -1 7 -1q10 0 10 8q0 3 -3 6l-3 4l-111 130l-113 -130q-7 -8 -7 -12q0 -5 10 -5q7 0 21 2t21 2q43 0 43 -35q0 -32 -43 -32h-14l-40 4q-30 3 -53 3q-18 0 -43 -3q-34 -4 -50 -4q-42 0 -42 34q0 33 36 33q6 0 18 -1.5t18 -1.5
q19 0 54 40z" />
    <glyph glyph-name="y" unicode="y" horiz-adv-x="601" 
d="M196 404l115 -338l122 333q5 14 5 22q0 17 -23 17q-12 0 -19 -2q-16 -2 -21 -2q-33 0 -33 32q0 34 43 34q6 0 20 -2l36 -5q14 -2 30 -2q17 0 50 4t50 4q43 0 43 -33q0 -32 -33 -32q-10 0 -15 2q-13 3 -18 3q-19 0 -39 -51l-136 -340q-45 -113 -85 -164q-68 -87 -170 -87
q-61 0 -102.5 31t-41.5 75q0 31 18 50.5t47 19.5q23 0 38 -13.5t15 -33.5q0 -32 -29 -41q15 -22 57 -22q53 0 95.5 39.5t42.5 88.5q0 25 -27 93l-110 278l-12 32q-17 45 -39 45q-6 0 -21.5 -3t-20.5 -3q-35 0 -35 32q0 34 46 34q15 0 23 -1l40 -5h8q7 -1 12 -1q36 0 77 4
q31 3 41 3q42 0 42 -33t-38 -33q-6 0 -19 2.5t-19 2.5q-14 0 -14 -14q0 -8 4 -20z" />
    <glyph glyph-name="z" unicode="z" horiz-adv-x="528" 
d="M59 103l326 330h-153q-75 0 -94 -4.5t-19 -23.5q0 -8 2 -18q5 -26 5 -49q0 -38 -33 -38q-34 0 -34 44q0 19 1 26q4 30 4 43q0 10 -3.5 29.5t-3.5 29.5q0 31 50 31q16 0 43 -1q31 -2 43 -2l60 -1h170q65 0 65 -46q0 -21 -38 -59l-324 -327h238q59 0 59 34v19q0 17 -2 29
q-2 38 -2 36q0 17 10 28.5t25 11.5q32 0 32 -38q0 -17 -2 -35q-4 -36 -4 -52q0 -11 2.5 -32t2.5 -32q0 -39 -44 -38l-61 2h-288q-25 0 -41 15t-16 38q0 26 24 50z" />
    <glyph glyph-name="braceleft" unicode="{" horiz-adv-x="500" 
d="M275 361q0 -49 -13 -73.5t-48 -43.5q34 -18 47.5 -44.5t13.5 -73.5v-161q0 -55 19 -72.5t77 -17.5v-63h-29q-76 0 -108 33.5t-32 113.5v165q0 43 -13 64t-44 29v59q57 16 57 89v176q0 73 33.5 105t107.5 32h28v-63q-58 -1 -77 -18t-19 -69v-167z" />
    <glyph glyph-name="bar" unicode="|" horiz-adv-x="500" 
d="M213 -250v1000h74v-1000h-74z" />
    <glyph glyph-name="braceright" unicode="}" horiz-adv-x="500" 
d="M236 129q0 48 13 73t48 44q-34 18 -47.5 44.5t-13.5 73.5v161q0 55 -19 72.5t-77 17.5v63h28q76 0 108.5 -33.5t32.5 -113.5v-165q0 -79 57 -93v-59q-57 -16 -57 -89v-176q0 -73 -33 -105t-108 -32h-28v63q58 1 77 18t19 69v167z" />
    <glyph glyph-name="asciitilde" unicode="~" horiz-adv-x="667" 
d="M225 654q-49 0 -89 -72l-43 28q31 64 61.5 89.5t75.5 25.5q38 0 112 -34q67 -31 97 -31q50 0 90 67l45 -26q-56 -112 -144 -112q-35 0 -84 22l-56 25q-40 18 -65 18z" />
    <glyph glyph-name="nonbreakingspace" unicode="&#xa0;" horiz-adv-x="250" 
 />
    <glyph glyph-name="exclamdown" unicode="&#xa1;" horiz-adv-x="419" 
d="M209 517q26 0 44.5 -18.5t18.5 -44.5t-18.5 -44.5t-44.5 -18.5t-44 18.5t-18 44.5t18 44.5t44 18.5zM246 -23q1 -72 3 -93v-19q0 -54 -42 -54t-42 59v20q1 12 4 87q3 84 3 109l-1 109l1 78q1 46 2 51q6 24 35 24q36 0 36 -50v-18z" />
    <glyph glyph-name="cent" unicode="&#xa2;" 
d="M455 462q-3 29 -31 50t-68 24v-386q55 6 79 35q16 20 35 83q10 30 38 30q17 0 28.5 -12t11.5 -30q0 -45 -36 -92t-85 -65q-25 -9 -71 -19v-111q0 -28 -28 -28t-28 28v111q-70 11 -111 40q-101 71 -101 217q0 89 39.5 154.5t109.5 93.5q24 10 63 16v104q0 28 28 28t28 -28
v-102q53 -7 89 -21q42 -17 69 -54t27 -78q0 -37 -22.5 -62.5t-55.5 -25.5q-24 0 -40 15t-16 37q0 20 12 34t28 14h8zM300 150v386q-126 -26 -126 -197q0 -85 33 -134.5t93 -54.5z" />
    <glyph glyph-name="sterling" unicode="&#xa3;" horiz-adv-x="728" 
d="M306 416l3 -8h204q11 0 19.5 -9t8.5 -21q0 -29 -27 -29h-173q44 -71 44 -145q0 -42 -12 -81q101 -74 178 -74q47 0 74.5 26.5t27.5 71.5q0 37 -21 59.5t-56 22.5q-23 0 -42.5 -12.5t-23.5 -29.5l-4 -17q-6 -24 -33 -24q-35 0 -35 37q0 46 40 79t96 33q68 0 110.5 -41
t42.5 -106q0 -71 -50 -120t-122 -49q-76 0 -136 35l-78 45q-71 -81 -181 -81q-70 0 -114.5 32t-44.5 82q0 52 41.5 85.5t105.5 33.5q67 0 161 -52q4 23 4 34q0 43 -51 139l-9 17h-147q-30 0 -30 29q0 30 29 30h114q-22 49 -22 93q0 83 58.5 135.5t151.5 52.5q81 0 134 -41
t53 -103q0 -32 -17.5 -54t-43.5 -22q-21 0 -35.5 14.5t-14.5 34.5q0 27 28 40q8 4 8 9q0 12 -18 26q-40 32 -95 32q-58 0 -95 -33.5t-37 -86.5q0 -25 10 -45zM161 44q76 0 115 53q-72 47 -133 47q-28 0 -47 -13t-19 -33q0 -24 23.5 -39t60.5 -15z" />
    <glyph glyph-name="currency" unicode="&#xa4;" horiz-adv-x="667" 
d="M96 82l-41 41l94 94q-51 66 -51 143q0 74 50 141l-95 95l41 42l95 -95q71 51 145 51t143 -50l94 93l42 -41l-95 -94q51 -69 51 -143q0 -70 -50 -140l95 -96l-41 -41l-95 95q-67 -51 -143 -51q-72 0 -145 50zM501 360q0 70 -49 119.5t-119 49.5q-69 0 -118 -49.5
t-49 -119.5t49 -119t119 -49q69 0 118 49t49 119z" />
    <glyph glyph-name="yen" unicode="&#xa5;" horiz-adv-x="710" 
d="M78 255h230l-45 83h-185q-31 0 -31 28q0 29 31 29h154l-86 157q-16 29 -21 35q-14 16 -34 16q-7 0 -20.5 -1t-20.5 -1q-42 0 -42 34q0 36 39 36q16 0 40 -4q47 -8 82 -8q27 0 37 2q5 1 39 7q17 3 29 3q41 0 41 -35q0 -34 -48 -34q-2 0 -10 1h-15q-4 1 -10 1q-12 0 -12 -7
q0 -5 5 -15l133 -260l135 260q5 10 5 15q0 10 -13 10q-8 0 -15 -1q-15 -5 -38 -5q-40 0 -40 35t39 35q13 0 30 -3q45 -8 80 -8t87 8q19 3 34 3q39 0 39 -34q0 -33 -37 -33q-14 0 -22 1.5t-21 1.5q-21 0 -33 -14q-7 -6 -21 -32l-92 -166h176q26 0 26 -29q0 -28 -26 -28h-207
l-46 -83h253q26 0 26 -29q0 -28 -26 -28h-255v-17q0 -66 2 -78q9 -45 49 -45q8 0 24.5 2.5t24.5 2.5q31 0 31 -32q0 -36 -45 -36h-6q-4 1 -7 1l-55 7q-31 4 -61 4q-32 0 -61 -4l-51 -7q-2 0 -7 -1h-8q-43 0 -43 35q0 33 32 33q8 0 23.5 -2.5t23.5 -2.5q31 0 40 19.5t11 87.5
l1 33h-236q-31 0 -31 28q0 29 31 29z" />
    <glyph glyph-name="section" unicode="&#xa7;" 
d="M409 549q0 27 34 43q-32 35 -100 35q-47 0 -75 -21t-28 -57q0 -35 23 -54.5t121 -64.5q67 -31 95 -52t42 -51q9 -20 9 -44q0 -74 -87 -140q37 -31 50.5 -57t13.5 -62q0 -71 -52 -114.5t-137 -43.5q-88 0 -145 42.5t-57 107.5q0 37 18.5 59t49.5 22q24 0 41.5 -17
t17.5 -40q0 -30 -35 -49q-9 -5 -9 -10q0 -13 23 -27q42 -25 91 -25q50 0 81 24t31 63q0 30 -16.5 49t-60.5 41l-78 38q-70 34 -97 56q-50 41 -50 95q0 73 87 139q-53 50 -53 105q0 68 49 109t131 41q78 0 130 -36.5t52 -89.5q0 -28 -16.5 -45.5t-42.5 -17.5
q-22 0 -36.5 13.5t-14.5 35.5zM344 359q-55 25 -86 42l-6 -6q-45 -45 -45 -82q0 -28 22 -48t87 -51q36 -17 79 -41q53 47 53 91q0 28 -22 48t-82 47z" />
    <glyph glyph-name="dieresis" unicode="&#xa8;" horiz-adv-x="491" 
d="M157 571q-23 0 -39.5 16.5t-16.5 39.5t16.5 39.5t39.5 16.5t39 -16.5t16 -39.5t-16 -39.5t-39 -16.5zM335 571q-23 0 -39.5 16.5t-16.5 39.5t16.5 39.5t39.5 16.5t39 -16.5t16 -39.5t-16.5 -39.5t-38.5 -16.5z" />
    <glyph glyph-name="copyright" unicode="&#xa9;" horiz-adv-x="791" 
d="M395 689q148 0 252 -104t104 -252q0 -147 -104.5 -251t-251.5 -104t-251 104t-104 251q0 148 104 252t251 104zM395 28q125 0 213.5 89.5t88.5 215.5q0 127 -88.5 216.5t-213.5 89.5t-213.5 -89.5t-88.5 -216.5q0 -126 88.5 -215.5t213.5 -89.5zM397 546q70 0 109 -43
q-1 2 -1.5 7t-0.5 12q0 23 23 23q24 0 24 -28q0 -9 -2 -28q-3 -29 -3 -41q0 -9 2 -32l2 -23v-6q0 -30 -26 -30t-26 29v22q0 41 -27.5 66.5t-73.5 25.5q-59 0 -93 -44.5t-34 -121.5q0 -79 34.5 -123t95.5 -44q106 0 107 100q0 31 27 31q29 0 29 -32q0 -64 -47.5 -105
t-120.5 -41q-85 0 -136 57t-51 152q0 97 52 157t137 60z" />
    <glyph glyph-name="ordfeminine" unicode="&#xaa;" horiz-adv-x="425" 
d="M315 393q-42 0 -57 33l-1 -1q-26 -34 -85 -34q-46 0 -74 22t-28 58q0 72 111 83q45 5 58 12.5t13 28.5q0 42 -56 42q-25 0 -44 -13q-3 -1 -6 -6q-1 0 -1 -1v-1l4 -3q9 -7 9 -20q0 -27 -32 -27q-37 0 -37 35q0 31 31.5 52.5t75.5 21.5q105 0 105 -94v-105v-27
q3 -17 16 -17q16 0 16 30v25q0 20 21 20t21 -28v-3l-1 -30q-2 -53 -59 -53zM69 330h310v-33h-310v33zM251 500v29q-15 -12 -70 -17q-60 -6 -60 -40q0 -40 54 -40q35 0 55.5 18.5t20.5 49.5z" />
    <glyph glyph-name="guillemotleft" unicode="&#xab;" horiz-adv-x="346" 
d="M171 415l-51 -148l53 -157q3 -6 3 -11q0 -15 -13 -15q-11 0 -17 10l-101 166q-2 2 -2 6t3 10l99 158q6 10 15 10q13 0 13 -15q0 -8 -2 -14zM298 415l-50 -148l53 -157q2 -6 2 -11q0 -15 -13 -15q-11 0 -16 10l-102 166q-2 4 -2 7t4 9l99 158q6 10 14 10q14 0 14 -14
q0 -9 -3 -15z" />
    <glyph glyph-name="logicalnot" unicode="&#xac;" horiz-adv-x="500" 
d="M467 0h-74v201h-360v66h434v-267z" />
    <glyph glyph-name="softhyphen" unicode="&#xad;" horiz-adv-x="549" 
d="M46 205v62h457v-62h-457z" />
    <glyph glyph-name="softhyphen" unicode="&#x2212;" horiz-adv-x="549" 
d="M46 205v62h457v-62h-457z" />
    <glyph glyph-name="registered" unicode="&#xae;" horiz-adv-x="500" 
d="M250 760q83 0 141.5 -58.5t58.5 -141.5q0 -82 -58.5 -141t-141.5 -59q-82 0 -141 59t-59 141q0 83 59 141.5t141 58.5zM250 390q71 0 120.5 50t49.5 120q0 71 -49.5 120.5t-120.5 49.5q-70 0 -120 -49.5t-50 -120.5q0 -70 50 -120t120 -50zM330 613q0 -34 -29 -46
q16 -12 16 -43v-18q0 -14 7 -14t7 19v20q0 22 16 22q17 0 17 -17q0 -4 -1 -8v-26q0 -41 -42 -41q-40 0 -40 40l1 9v17q0 17 -7 21t-25 4h-26q-3 0 -3 -2v-42q0 -16 8 -16q3 0 5 1h9q15 0 15 -15q0 -17 -19 -17q-1 0 -5 1l-15 2q-3 0 -8 1h-7q-3 0 -9 -1t-10 -1l-14 -1
q-2 -1 -6 -1q-18 0 -18 16t15 16q5 0 9 -1h5q9 0 9 15v115q0 4 -2 11q0 1 -1 3t-6 2q-6 -1 -5 -1q-4 -1 -9 -1q-15 0 -15 16t19 16h5l14 -2h7q4 -1 7 -1q-1 0 20 1l21 1q7 1 20 1q70 0 70 -55zM221 626v-42q0 -1 2 -1h27q44 0 44 29q0 26 -38 26q-35 0 -35 -12z" />
    <glyph glyph-name="macron" unicode="&#xaf;" horiz-adv-x="491" 
d="M99 627q0 32 37 32h220q36 0 36 -29q0 -14 -10.5 -23.5t-25.5 -9.5h-220q-37 0 -37 30z" />
    <glyph glyph-name="macron" unicode="&#x2c9;" horiz-adv-x="491" 
d="M99 627q0 32 37 32h220q36 0 36 -29q0 -14 -10.5 -23.5t-25.5 -9.5h-220q-37 0 -37 30z" />
    <glyph glyph-name="degree" unicode="&#xb0;" horiz-adv-x="500" 
d="M250 392q-59 0 -100.5 40.5t-41.5 98.5q0 57 41.5 97.5t100.5 40.5t100.5 -40.5t41.5 -97.5q0 -58 -41.5 -98.5t-100.5 -40.5zM250 623q-39 0 -66.5 -27t-27.5 -65t27.5 -65.5t66.5 -27.5t66.5 27.5t27.5 65.5t-27.5 65t-66.5 27z" />
    <glyph glyph-name="plusminus" unicode="&#xb1;" horiz-adv-x="500" 
d="M20 346v68h193v181h74v-181h193v-68h-197v-180h-70v180h-193zM20 54v68h460v-68h-460z" />
    <glyph glyph-name="acute" unicode="&#xb4;" horiz-adv-x="492" 
d="M394 665q0 -25 -35 -40l-143 -62q-12 -3 -13 -3q-21 0 -21 24q0 13 21 26l126 79q16 10 30 10q35 0 35 -34z" />
    <glyph glyph-name="mu" unicode="&#xb5;" horiz-adv-x="500" 
d="M119 -168h-73v647h73v-271q0 -60 12 -91t43.5 -51t71.5 -20q70 0 108 62q25 41 25 109v262h73v-479h-72v85q-47 -98 -136 -98q-78 0 -125 74v-229z" />
    <glyph glyph-name="mu" unicode="&#x3bc;" horiz-adv-x="500" 
d="M119 -168h-73v647h73v-271q0 -60 12 -91t43.5 -51t71.5 -20q70 0 108 62q25 41 25 109v262h73v-479h-72v85q-47 -98 -136 -98q-78 0 -125 74v-229z" />
    <glyph glyph-name="paragraph" unicode="&#xb6;" horiz-adv-x="581" 
d="M283 -98h-64v413h-7q-5 -1 -8 -1q-81 0 -132 48.5t-51 125.5q0 57 29.5 101t78.5 61t113 17h269v-58h-60v-707h-64v707h-104v-707z" />
    <glyph glyph-name="periodcentered" unicode="&#xb7;" horiz-adv-x="137" 
d="M68 284q-28 0 -48 20.5t-20 48.5t20 48.5t48 20.5q29 0 49 -20t20 -49q0 -28 -20 -48.5t-49 -20.5z" />
    <glyph glyph-name="periodcentered" unicode="&#x2219;" horiz-adv-x="137" 
d="M68 284q-28 0 -48 20.5t-20 48.5t20 48.5t48 20.5q29 0 49 -20t20 -49q0 -28 -20 -48.5t-49 -20.5z" />
    <glyph glyph-name="cedilla" unicode="&#xb8;" horiz-adv-x="492" 
d="M229 0h49l-19 -48q18 3 26 3q36 0 61.5 -22t25.5 -53q0 -35 -32 -59t-79 -24q-41 0 -73 18t-32 41q0 9 7 16.5t15 7.5q11 0 18 -8l11 -12q17 -19 51 -19q52 0 52 38q0 35 -45 35q-11 0 -23 -4l-24 -8q-3 -1 -11 -1q-13 0 -13 11q0 4 5 16z" />
    <glyph glyph-name="ordmasculine" unicode="&#xba;" horiz-adv-x="425" 
d="M210 391q-59 0 -94.5 38.5t-35.5 103.5t35.5 103.5t96.5 38.5q62 0 97.5 -38t35.5 -103q0 -64 -37 -103.5t-98 -39.5zM80 330h264v-33h-264v33zM213 634q-78 0 -82 -94v-7q0 -47 21 -74t58 -27q83 0 83 102q0 100 -80 100z" />
    <glyph glyph-name="guillemotright" unicode="&#xbb;" horiz-adv-x="346" 
d="M172 110l53 157l-50 148q-2 4 -2 14q0 15 13 15q8 0 14 -10l100 -158q3 -6 3 -9t-2 -7l-102 -166q-5 -10 -16 -10q-13 0 -13 15q0 5 2 11zM45 110l53 157l-51 148q-2 6 -2 14q0 15 13 15q9 0 15 -10l99 -158q4 -6 4 -9q0 -4 -3 -7l-101 -166q-6 -10 -16 -10q-14 0 -14 15
q0 2 3 11z" />
    <glyph glyph-name="questiondown" unicode="&#xbf;" horiz-adv-x="600" 
d="M319 517q26 0 44 -18.5t18 -44.5t-18 -44.5t-44 -18.5t-44 18.5t-18 44.5t18 44.5t44 18.5zM463 -2q0 26 -26 42q1 -4 1 -10q0 -14 -11 -23.5t-27 -9.5q-43 0 -43 44q0 29 23 48.5t57 19.5q44 0 72 -29.5t28 -75.5q0 -85 -71 -139t-183 -54t-179 51.5t-67 137.5
q0 107 106 161q18 9 46 21q58 25 79.5 48t21.5 62q0 30 8 41t30 11q42 0 42 -52q0 -47 -25 -82q-31 -43 -109 -85q-73 -39 -94 -62.5t-21 -65.5q0 -55 45 -88.5t119 -33.5q75 0 126.5 35.5t51.5 87.5z" />
    <glyph glyph-name="Agrave" unicode="&#xc0;" horiz-adv-x="746" 
d="M523 113l-36 98q-6 16 -12.5 20t-26.5 4h-178q-20 0 -27.5 -7t-19.5 -38l-29 -77q-4 -11 -4 -21q0 -32 39 -32q10 0 28.5 2t27.5 2q41 0 41 -35q0 -33 -45 -33q-8 0 -22 2l-50 7q-14 2 -46 2q-35 0 -49 -2l-42 -6q-28 -4 -41 -4q-39 0 -39 33q0 35 38 35q8 0 12 -1h13
q27 0 41 21q6 8 20 47l186 503q16 42 63 42q46 0 61 -42l179 -496q17 -47 31 -62t40 -15q8 0 12 1l28 2q38 0 38 -32q0 -34 -38 -34q-11 0 -29 2q-63 7 -94 7q-37 0 -120 -8q-21 -2 -32 -2q-40 0 -40 34t44 34q9 0 26.5 -2t26.5 -2q33 0 33 27q0 4 -8 26zM291 861
q15 0 31 -10l136 -85q25 -16 25 -30q0 -23 -25 -23q-8 0 -15 3l-153 66q-37 16 -37 39q0 40 38 40zM451 317l-90 276l-92 -276q-2 -6 -2 -7q0 -9 15 -9h159q12 0 12 8q0 2 -2 8z" />
    <glyph glyph-name="Aacute" unicode="&#xc1;" horiz-adv-x="746" 
d="M523 113l-36 98q-6 16 -12.5 20t-26.5 4h-178q-20 0 -27.5 -7t-19.5 -38l-29 -77q-4 -11 -4 -21q0 -32 39 -32q10 0 28.5 2t27.5 2q41 0 41 -35q0 -33 -45 -33q-8 0 -22 2l-50 7q-14 2 -46 2q-35 0 -49 -2l-42 -6q-28 -4 -41 -4q-39 0 -39 33q0 35 38 35q8 0 12 -1h13
q27 0 41 21q6 8 20 47l186 503q16 42 63 42q46 0 61 -42l179 -496q17 -47 31 -62t40 -15q8 0 12 1l28 2q38 0 38 -32q0 -34 -38 -34q-11 0 -29 2q-63 7 -94 7q-37 0 -120 -8q-21 -2 -32 -2q-40 0 -40 34t44 34q9 0 26.5 -2t26.5 -2q33 0 33 27q0 4 -8 26zM475 821
q0 -23 -37 -39l-153 -66q-7 -3 -15 -3q-25 0 -25 23q0 14 25 30l136 85q16 10 31 10q38 0 38 -40zM451 317l-90 276l-92 -276q-2 -6 -2 -7q0 -9 15 -9h159q12 0 12 8q0 2 -2 8z" />
    <glyph glyph-name="Acircumflex" unicode="&#xc2;" horiz-adv-x="746" 
d="M523 113l-36 98q-6 16 -12.5 20t-26.5 4h-178q-20 0 -27.5 -7t-19.5 -38l-29 -77q-4 -11 -4 -21q0 -32 39 -32q10 0 28.5 2t27.5 2q41 0 41 -35q0 -33 -45 -33q-8 0 -22 2l-50 7q-14 2 -46 2q-35 0 -49 -2l-42 -6q-28 -4 -41 -4q-39 0 -39 33q0 35 38 35q8 0 12 -1h13
q27 0 41 21q6 8 20 47l186 503q16 42 63 42q46 0 61 -42l179 -496q17 -47 31 -62t40 -15q8 0 12 1l28 2q38 0 38 -32q0 -34 -38 -34q-11 0 -29 2q-63 7 -94 7q-37 0 -120 -8q-21 -2 -32 -2q-40 0 -40 34t44 34q9 0 26.5 -2t26.5 -2q33 0 33 27q0 4 -8 26zM489 730l-120 56
l-120 -56q-17 -8 -18 -9q-12 -4 -18 -4h-1q-22 0 -22 19q0 11 23 27l135 95q11 8 21 8t21 -8l136 -95q22 -15 22 -27q0 -19 -21 -19q-7 0 -19 4q-4 2 -19 9zM451 317l-90 276l-92 -276q-2 -6 -2 -7q0 -9 15 -9h159q12 0 12 8q0 2 -2 8z" />
    <glyph glyph-name="Atilde" unicode="&#xc3;" horiz-adv-x="746" 
d="M523 113l-36 98q-6 16 -12.5 20t-26.5 4h-178q-20 0 -27.5 -7t-19.5 -38l-29 -77q-4 -11 -4 -21q0 -32 39 -32q10 0 28.5 2t27.5 2q41 0 41 -35q0 -33 -45 -33q-8 0 -22 2l-50 7q-14 2 -46 2q-35 0 -49 -2l-42 -6q-28 -4 -41 -4q-39 0 -39 33q0 35 38 35q8 0 12 -1h13
q27 0 41 21q6 8 20 47l186 503q16 42 63 42q46 0 61 -42l179 -496q17 -47 31 -62t40 -15q8 0 12 1l28 2q38 0 38 -32q0 -34 -38 -34q-11 0 -29 2q-63 7 -94 7q-37 0 -120 -8q-21 -2 -32 -2q-40 0 -40 34t44 34q9 0 26.5 -2t26.5 -2q33 0 33 27q0 4 -8 26zM310 841
q27 0 72 -15l39 -13q21 -7 33 -7q28 0 44 17l14 15q5 5 12 5q16 0 16 -16q0 -34 -32 -60t-74 -26q-27 0 -68 14q-56 19 -76 19q-34 0 -47 -19l-8 -12q-9 -9 -15 -9q-14 0 -14 17q0 36 31.5 63t72.5 27zM451 317l-90 276l-92 -276q-2 -6 -2 -7q0 -9 15 -9h159q12 0 12 8
q0 2 -2 8z" />
    <glyph glyph-name="Adieresis" unicode="&#xc4;" horiz-adv-x="746" 
d="M523 113l-36 98q-6 16 -12.5 20t-26.5 4h-178q-20 0 -27.5 -7t-19.5 -38l-29 -77q-4 -11 -4 -21q0 -32 39 -32q10 0 28.5 2t27.5 2q41 0 41 -35q0 -33 -45 -33q-8 0 -22 2l-50 7q-14 2 -46 2q-35 0 -49 -2l-42 -6q-28 -4 -41 -4q-39 0 -39 33q0 35 38 35q8 0 12 -1h13
q27 0 41 21q6 8 20 47l186 503q16 42 63 42q46 0 61 -42l179 -496q17 -47 31 -62t40 -15q8 0 12 1l28 2q38 0 38 -32q0 -34 -38 -34q-11 0 -29 2q-63 7 -94 7q-37 0 -120 -8q-21 -2 -32 -2q-40 0 -40 34t44 34q9 0 26.5 -2t26.5 -2q33 0 33 27q0 4 -8 26zM277 733
q-27 0 -46 18.5t-19 45.5t19 45.5t46 18.5q26 0 45 -18.5t19 -45.5t-19 -45.5t-45 -18.5zM457 733q-27 0 -46 19t-19 45t19 45t46 19q26 0 45 -18.5t19 -45.5q0 -26 -19 -45t-45 -19zM451 317l-90 276l-92 -276q-2 -6 -2 -7q0 -9 15 -9h159q12 0 12 8q0 2 -2 8z" />
    <glyph glyph-name="Aring" unicode="&#xc5;" horiz-adv-x="746" 
d="M523 113l-36 98q-6 16 -12.5 20t-26.5 4h-178q-20 0 -27.5 -7t-19.5 -38l-29 -77q-4 -11 -4 -21q0 -32 39 -32q10 0 28.5 2t27.5 2q41 0 41 -35q0 -33 -45 -33q-8 0 -22 2l-50 7q-14 2 -46 2q-35 0 -49 -2l-42 -6q-28 -4 -41 -4q-39 0 -39 33q0 35 38 35q8 0 12 -1h13
q27 0 41 21q6 8 20 47l186 503q16 42 63 42q46 0 61 -42l179 -496q17 -47 31 -62t40 -15q8 0 12 1l28 2q38 0 38 -32q0 -34 -38 -34q-11 0 -29 2q-63 7 -94 7q-37 0 -120 -8q-21 -2 -32 -2q-40 0 -40 34t44 34q9 0 26.5 -2t26.5 -2q33 0 33 27q0 4 -8 26zM365 711
q-41 0 -69.5 28t-28.5 68t28.5 68.5t69.5 28.5t69 -28t28 -69q0 -40 -28.5 -68t-68.5 -28zM451 317l-90 276l-92 -276q-2 -6 -2 -7q0 -9 15 -9h159q12 0 12 8q0 2 -2 8zM365 857q-21 0 -35.5 -14.5t-14.5 -35.5q0 -20 15 -34.5t35 -14.5t34.5 14.5t14.5 34.5
q0 21 -14.5 35.5t-34.5 14.5z" />
    <glyph glyph-name="AE" unicode="&#xc6;" horiz-adv-x="1019" 
d="M269 266l-26 -44l-30 -54l-27 -45q-6 -10 -19 -31q-2 -3 -6 -9.5t-4 -10.5q0 -11 19 -11q8 0 21 2.5t20 2.5q39 0 39 -35q0 -36 -41 -36q-11 0 -28 3q-52 9 -81 9q-26 0 -80 -8q-27 -4 -38 -4q-36 0 -36 34t37 34q6 0 19 -2t19 -2q19 0 43 29l14 17l336 533q18 28 45 28
q13 0 32 -1q37 -2 106 -2h45q22 0 92 2l158 6q46 -2 46 -47v-5q-1 -3 -1 -5l-4 -42q-3 -32 -3 -60q0 -29 2 -40q4 -48 4 -45q0 -39 -36 -39t-36 51q0 4 1 16v21q1 8 1 24q0 70 -26.5 87.5t-133.5 17.5q-85 0 -108 -4t-29 -26q-3 -9 -3 -42v-142q0 -14 4.5 -18t20.5 -4h72
q58 0 58 47q0 10 -2.5 30t-2.5 30q0 41 34 41q35 0 35 -39q0 -20 -3 -41q-8 -57 -8 -109q0 -45 8 -102q3 -21 3 -34q0 -38 -35 -38t-35 36q0 13 3 31t3 35q0 48 -59 48h-73q-23 0 -23 -19v-162q0 -39 10 -48.5t53 -9.5h130q77 0 99.5 16.5t22.5 74.5q0 26 -2 47v21
q0 57 35 57q36 0 36 -42q0 -20 -2.5 -60.5t-2.5 -60.5q0 -14 1 -27l3 -38v-8q0 -50 -53 -50q-8 0 -59 3q-85 5 -253 5q-98 0 -151 -4l-53 -4q-42 0 -42 35t49 35q-6 0 19 -1q19 -1 25 -1q38 0 49 30q5 14 5 63v115q0 22 -5 27.5t-19 5.5h-162q-12 -2 -17.5 -9.5t-18.5 -28.5
zM485 610l-152 -241h141q16 0 17 22l6 219q0 6 -4 6q-5 0 -8 -6z" />
    <glyph glyph-name="Ccedilla" unicode="&#xc7;" 
d="M338 689q111 0 181 -85l-1 11v11q-1 6 -1 7q-2 22 -2 20q0 34 32 34q34 0 34 -42q0 -8 -4 -48q-5 -50 -5 -69q0 -27 3 -55l4 -38v-10q0 -45 -36 -45q-39 0 -38 43l1 36q2 72 -45 117t-123 45q-99 0 -155 -76t-56 -210q0 -137 57.5 -213.5t160.5 -76.5q56 0 100.5 27
t62.5 71q12 29 12 78q0 46 38 46q41 0 41 -46q0 -118 -89 -188q-63 -50 -169 -55l-16 -44q28 4 41 4q42 0 69.5 -23.5t27.5 -58.5q0 -40 -36 -66.5t-92 -26.5q-47 0 -84 17.5t-37 39.5q0 23 20 23q7 0 16 -6l16 -11q26 -18 71 -18q59 0 59 44q0 40 -53 40q-12 0 -32.5 -6
t-30.5 -6q-14 0 -14 17q0 10 7 27l23 56q-120 14 -189 107t-69 239q0 163 82.5 263t217.5 100z" />
    <glyph glyph-name="Egrave" unicode="&#xc8;" horiz-adv-x="673" 
d="M149 534q0 74 -51 74q-14 0 -21 -2q-16 -3 -27 -3q-13 0 -22 9.5t-9 23.5q0 35 42 35q1 0 15 -1q150 -10 140 -10h10l241 7q7 0 52 3q16 1 29 1q52 0 52 -46q0 -8 -4 -51q-3 -32 -3 -59q0 -35 2 -49q4 -29 4 -43q0 -38 -36 -38t-36 53v52q0 84 -35 99q-26 11 -134 11
q-71 0 -84 -3q-43 -11 -43 -60v-45v-22q-1 -14 -1 -20v-13q0 -40 18 -46q7 -2 24 -2h41q63 0 63 43q0 12 -3 31t-3 34q0 40 36 40t36 -43q0 -8 -7 -62q-6 -46 -6 -81q0 -20 4 -71q1 -8 5 -35q3 -22 3 -35q0 -36 -36 -36q-35 0 -35 42q0 11 2.5 32t2.5 32q0 43 -57 43h-45
q-29 0 -35.5 -10t-6.5 -43v-62q0 -16 1 -43q1 -33 1 -44q1 -40 16 -50q11 -7 52 -7h136q59 0 81 17.5t22 65.5q0 15 -1.5 44.5t-1.5 44.5q0 45 36 45q38 0 38 -46q0 -18 -2 -55t-2 -55q0 -14 1.5 -41.5t1.5 -41.5q0 -47 -46 -47q-11 0 -35 2q-12 1 -44 1q7 0 -78 2t-147 2
q-94 0 -184 -6q-4 0 -9 -1h-6q-42 0 -42 36q0 32 31 32q5 0 27 -2q11 -3 21 -3q51 0 51 75v401zM241 861q15 0 31 -10l136 -85q25 -16 25 -30q0 -23 -25 -23q-7 0 -14 3l-153 66q-38 16 -38 39q0 17 11 28.5t27 11.5z" />
    <glyph glyph-name="Eacute" unicode="&#xc9;" horiz-adv-x="673" 
d="M149 534q0 74 -51 74q-14 0 -21 -2q-16 -3 -27 -3q-13 0 -22 9.5t-9 23.5q0 35 42 35q1 0 15 -1q150 -10 140 -10h10l241 7q7 0 52 3q16 1 29 1q52 0 52 -46q0 -8 -4 -51q-3 -32 -3 -59q0 -35 2 -49q4 -29 4 -43q0 -38 -36 -38t-36 53v52q0 84 -35 99q-26 11 -134 11
q-71 0 -84 -3q-43 -11 -43 -60v-45v-22q-1 -14 -1 -20v-13q0 -40 18 -46q7 -2 24 -2h41q63 0 63 43q0 12 -3 31t-3 34q0 40 36 40t36 -43q0 -8 -7 -62q-6 -46 -6 -81q0 -20 4 -71q1 -8 5 -35q3 -22 3 -35q0 -36 -36 -36q-35 0 -35 42q0 11 2.5 32t2.5 32q0 43 -57 43h-45
q-29 0 -35.5 -10t-6.5 -43v-62q0 -16 1 -43q1 -33 1 -44q1 -40 16 -50q11 -7 52 -7h136q59 0 81 17.5t22 65.5q0 15 -1.5 44.5t-1.5 44.5q0 45 36 45q38 0 38 -46q0 -18 -2 -55t-2 -55q0 -14 1.5 -41.5t1.5 -41.5q0 -47 -46 -47q-11 0 -35 2q-12 1 -44 1q7 0 -78 2t-147 2
q-94 0 -184 -6q-4 0 -9 -1h-6q-42 0 -42 36q0 32 31 32q5 0 27 -2q11 -3 21 -3q51 0 51 75v401zM465 821q0 -23 -37 -39l-153 -66q-7 -3 -14 -3q-25 0 -25 23q0 15 24 30l136 85q16 10 32 10q37 0 37 -40z" />
    <glyph glyph-name="Ecircumflex" unicode="&#xca;" horiz-adv-x="673" 
d="M149 534q0 74 -51 74q-14 0 -21 -2q-16 -3 -27 -3q-13 0 -22 9.5t-9 23.5q0 35 42 35q1 0 15 -1q150 -10 140 -10h10l241 7q7 0 52 3q16 1 29 1q52 0 52 -46q0 -8 -4 -51q-3 -32 -3 -59q0 -35 2 -49q4 -29 4 -43q0 -38 -36 -38t-36 53v52q0 84 -35 99q-26 11 -134 11
q-71 0 -84 -3q-43 -11 -43 -60v-45v-22q-1 -14 -1 -20v-13q0 -40 18 -46q7 -2 24 -2h41q63 0 63 43q0 12 -3 31t-3 34q0 40 36 40t36 -43q0 -8 -7 -62q-6 -46 -6 -81q0 -20 4 -71q1 -8 5 -35q3 -22 3 -35q0 -36 -36 -36q-35 0 -35 42q0 11 2.5 32t2.5 32q0 43 -57 43h-45
q-29 0 -35.5 -10t-6.5 -43v-62q0 -16 1 -43q1 -33 1 -44q1 -40 16 -50q11 -7 52 -7h136q59 0 81 17.5t22 65.5q0 15 -1.5 44.5t-1.5 44.5q0 45 36 45q38 0 38 -46q0 -18 -2 -55t-2 -55q0 -14 1.5 -41.5t1.5 -41.5q0 -47 -46 -47q-11 0 -35 2q-12 1 -44 1q7 0 -78 2t-147 2
q-94 0 -184 -6q-4 0 -9 -1h-6q-42 0 -42 36q0 32 31 32q5 0 27 -2q11 -3 21 -3q51 0 51 75v401zM444 730l-120 56l-120 -56l-18 -9q-12 -4 -18 -4h-1q-22 0 -22 19q0 11 23 27l136 95q11 8 20 8q10 0 21 -8l136 -95q22 -15 22 -27q0 -19 -21 -19q-7 0 -19 4q-4 2 -19 9z" />
    <glyph glyph-name="Edieresis" unicode="&#xcb;" horiz-adv-x="673" 
d="M149 534q0 74 -51 74q-14 0 -21 -2q-16 -3 -27 -3q-13 0 -22 9.5t-9 23.5q0 35 42 35q1 0 15 -1q150 -10 140 -10h10l241 7q7 0 52 3q16 1 29 1q52 0 52 -46q0 -8 -4 -51q-3 -32 -3 -59q0 -35 2 -49q4 -29 4 -43q0 -38 -36 -38t-36 53v52q0 84 -35 99q-26 11 -134 11
q-71 0 -84 -3q-43 -11 -43 -60v-45v-22q-1 -14 -1 -20v-13q0 -40 18 -46q7 -2 24 -2h41q63 0 63 43q0 12 -3 31t-3 34q0 40 36 40t36 -43q0 -8 -7 -62q-6 -46 -6 -81q0 -20 4 -71q1 -8 5 -35q3 -22 3 -35q0 -36 -36 -36q-35 0 -35 42q0 11 2.5 32t2.5 32q0 43 -57 43h-45
q-29 0 -35.5 -10t-6.5 -43v-62q0 -16 1 -43q1 -33 1 -44q1 -40 16 -50q11 -7 52 -7h136q59 0 81 17.5t22 65.5q0 15 -1.5 44.5t-1.5 44.5q0 45 36 45q38 0 38 -46q0 -18 -2 -55t-2 -55q0 -14 1.5 -41.5t1.5 -41.5q0 -47 -46 -47q-11 0 -35 2q-12 1 -44 1q7 0 -78 2t-147 2
q-94 0 -184 -6q-4 0 -9 -1h-6q-42 0 -42 36q0 32 31 32q5 0 27 -2q11 -3 21 -3q51 0 51 75v401zM238 733q-27 0 -46 18.5t-19 45.5t19 45.5t46 18.5t46 -18.5t19 -45.5t-19 -45.5t-46 -18.5zM418 733q-26 0 -45 18.5t-19 45.5q0 26 19 45t45 19q27 0 46 -18.5t19 -45.5
t-19 -45.5t-46 -18.5z" />
    <glyph glyph-name="Igrave" unicode="&#xcc;" horiz-adv-x="382" 
d="M149 534q0 74 -51 74q-14 0 -21 -2q-16 -3 -27 -3q-13 0 -22 9.5t-9 23.5q0 35 44 35q6 0 14 -1l53 -7q30 -4 62 -4q31 0 68 5l45 6q8 1 14 1q44 0 44 -35q0 -14 -9 -23.5t-22 -9.5q-10 0 -27 3q-7 2 -21 2q-51 0 -51 -74v-401q0 -75 51 -75q8 0 21 2q19 3 27 3
q31 0 31 -32q0 -36 -44 -36h-7q-4 1 -7 1l-52 8q-26 4 -55 4q-42 0 -75 -5l-46 -7q-2 0 -7 -1h-8q-43 0 -43 36q0 32 31 32q5 0 27 -2q11 -3 21 -3q51 0 51 75v401zM109 861q15 0 31 -10l136 -85q25 -16 25 -30q0 -23 -25 -23q-8 0 -15 3l-152 66q-38 16 -38 39q0 40 38 40z
" />
    <glyph glyph-name="Iacute" unicode="&#xcd;" horiz-adv-x="382" 
d="M149 534q0 74 -51 74q-14 0 -21 -2q-16 -3 -27 -3q-13 0 -22 9.5t-9 23.5q0 35 44 35q6 0 14 -1l53 -7q30 -4 62 -4q31 0 68 5l45 6q8 1 14 1q44 0 44 -35q0 -14 -9 -23.5t-22 -9.5q-10 0 -27 3q-7 2 -21 2q-51 0 -51 -74v-401q0 -75 51 -75q8 0 21 2q19 3 27 3
q31 0 31 -32q0 -36 -44 -36h-7q-4 1 -7 1l-52 8q-26 4 -55 4q-42 0 -75 -5l-46 -7q-2 0 -7 -1h-8q-43 0 -43 36q0 32 31 32q5 0 27 -2q11 -3 21 -3q51 0 51 75v401zM307 821q0 -23 -38 -39l-153 -66q-7 -3 -14 -3q-25 0 -25 23q0 15 24 30l137 85q16 10 31 10q38 0 38 -40z
" />
    <glyph glyph-name="Icircumflex" unicode="&#xce;" horiz-adv-x="382" 
d="M149 534q0 74 -51 74q-14 0 -21 -2q-16 -3 -27 -3q-13 0 -22 9.5t-9 23.5q0 35 44 35q6 0 14 -1l53 -7q30 -4 62 -4q31 0 68 5l45 6q8 1 14 1q44 0 44 -35q0 -14 -9 -23.5t-22 -9.5q-10 0 -27 3q-7 2 -21 2q-51 0 -51 -74v-401q0 -75 51 -75q8 0 21 2q19 3 27 3
q31 0 31 -32q0 -36 -44 -36h-7q-4 1 -7 1l-52 8q-26 4 -55 4q-42 0 -75 -5l-46 -7q-2 0 -7 -1h-8q-43 0 -43 36q0 32 31 32q5 0 27 -2q11 -3 21 -3q51 0 51 75v401zM307 730l-120 56l-120 -56l-18 -9q-12 -4 -18 -4h-1q-22 0 -22 19q0 11 23 27l136 95q11 8 20 8q10 0 21 -8
l136 -95q22 -15 22 -27q0 -19 -21 -19q-7 0 -19 4q-4 2 -19 9z" />
    <glyph glyph-name="Idieresis" unicode="&#xcf;" horiz-adv-x="382" 
d="M149 534q0 74 -51 74q-14 0 -21 -2q-16 -3 -27 -3q-13 0 -22 9.5t-9 23.5q0 35 44 35q6 0 14 -1l53 -7q30 -4 62 -4q31 0 68 5l45 6q8 1 14 1q44 0 44 -35q0 -14 -9 -23.5t-22 -9.5q-10 0 -27 3q-7 2 -21 2q-51 0 -51 -74v-401q0 -75 51 -75q8 0 21 2q19 3 27 3
q31 0 31 -32q0 -36 -44 -36h-7q-4 1 -7 1l-52 8q-26 4 -55 4q-42 0 -75 -5l-46 -7q-2 0 -7 -1h-8q-43 0 -43 36q0 32 31 32q5 0 27 -2q11 -3 21 -3q51 0 51 75v401zM101 733q-27 0 -46 18.5t-19 45.5t19 45.5t46 18.5t46 -18.5t19 -45.5t-19 -45.5t-46 -18.5zM281 733
q-26 0 -45 19t-19 45t19 45t45 19q27 0 46 -18.5t19 -45.5q0 -26 -19 -45t-46 -19z" />
    <glyph glyph-name="Ntilde" unicode="&#xd1;" horiz-adv-x="764" 
d="M296 626l269 -559v403q0 78 -1 86q-9 52 -50 52q-8 0 -24 -2.5t-24 -2.5q-13 0 -22.5 9.5t-9.5 22.5q0 36 45 36q9 0 13 -1l45 -6q30 -4 56 -4t69 6q15 2 35 5q2 0 7 1h7q43 0 43 -35q0 -34 -40 -34q-7 0 -11 1h-10q-30 0 -39 -13t-11 -57l-2 -57l-2 -102v-267
q0 -69 -15.5 -97t-53.5 -28q-49 0 -83 70l-262 545v-465q0 -75 51 -75q8 0 24 2.5t24 2.5q32 0 32 -33q0 -35 -45 -35h-6q-5 1 -7 1l-41 6q-34 5 -64 5q-26 0 -67 -5l-49 -6q-2 0 -7 -1h-8q-43 0 -43 35q0 31 32 31q5 0 27 -2q11 -3 21 -3q51 0 51 75v70l1 88v86l-1 158
q0 75 -52 75q-7 0 -20 -2q-19 -3 -28 -3q-32 0 -32 33q0 35 43 35q6 0 16 -1q50 -5 77 -5q15 0 45 3t45 3q31 0 41 -21zM348 841q29 0 73 -15l38 -13q20 -7 34 -7q26 0 43 17l15 15q5 5 11 5q16 0 16 -16q0 -34 -32 -60t-74 -26q-25 0 -64 13l-3 1q-56 19 -77 19
q-32 0 -46 -19l-9 -12q-7 -9 -14 -9q-15 0 -15 17q0 35 31.5 62.5t72.5 27.5z" />
    <glyph glyph-name="Ograve" unicode="&#xd2;" horiz-adv-x="655" 
d="M326 -22q-133 0 -210.5 96t-77.5 260q0 166 78 260.5t215 94.5q131 0 208.5 -92t77.5 -249q0 -170 -78.5 -270t-212.5 -100zM245 861q16 0 32 -10l136 -85q24 -16 24 -30q0 -23 -25 -23q-7 0 -14 3l-153 66q-37 16 -37 39q0 40 37 40zM328 617q-96 0 -149 -74t-53 -208
q0 -136 53 -210.5t148 -74.5q93 0 147.5 77.5t54.5 210.5q0 134 -52 206.5t-149 72.5z" />
    <glyph glyph-name="Oacute" unicode="&#xd3;" horiz-adv-x="655" 
d="M326 -22q-133 0 -210.5 96t-77.5 260q0 166 78 260.5t215 94.5q131 0 208.5 -92t77.5 -249q0 -170 -78.5 -270t-212.5 -100zM443 821q0 -23 -37 -39l-153 -66q-7 -3 -15 -3q-25 0 -25 23q0 14 25 30l136 85q16 10 31 10q38 0 38 -40zM328 617q-96 0 -149 -74t-53 -208
q0 -136 53 -210.5t148 -74.5q93 0 147.5 77.5t54.5 210.5q0 134 -52 206.5t-149 72.5z" />
    <glyph glyph-name="Ocircumflex" unicode="&#xd4;" horiz-adv-x="655" 
d="M326 -22q-133 0 -210.5 96t-77.5 260q0 166 78 260.5t215 94.5q131 0 208.5 -92t77.5 -249q0 -170 -78.5 -270t-212.5 -100zM444 730l-120 56l-139 -65q-12 -4 -17 -4h-2q-21 0 -21 19q0 11 23 27l135 95q11 8 21 8t21 -8l135 -95q23 -16 23 -27q0 -19 -21 -19
q-10 0 -19 4q-4 2 -19 9zM328 617q-96 0 -149 -74t-53 -208q0 -136 53 -210.5t148 -74.5q93 0 147.5 77.5t54.5 210.5q0 134 -52 206.5t-149 72.5z" />
    <glyph glyph-name="Otilde" unicode="&#xd5;" horiz-adv-x="655" 
d="M326 -22q-133 0 -210.5 96t-77.5 260q0 166 78 260.5t215 94.5q131 0 208.5 -92t77.5 -249q0 -170 -78.5 -270t-212.5 -100zM265 841q27 0 72 -15l39 -13q21 -7 33 -7q26 0 43 17l15 15q5 5 12 5q15 0 15 -16q0 -34 -32 -60t-73 -26q-27 0 -68 14q-56 19 -76 19
q-33 0 -47 -19l-9 -12q-7 -9 -14 -9q-14 0 -14 17q0 36 31.5 63t72.5 27zM328 617q-96 0 -149 -74t-53 -208q0 -136 53 -210.5t148 -74.5q93 0 147.5 77.5t54.5 210.5q0 134 -52 206.5t-149 72.5z" />
    <glyph glyph-name="Odieresis" unicode="&#xd6;" horiz-adv-x="655" 
d="M326 -22q-133 0 -210.5 96t-77.5 260q0 166 78 260.5t215 94.5q131 0 208.5 -92t77.5 -249q0 -170 -78.5 -270t-212.5 -100zM238 733q-27 0 -46 18.5t-19 45.5t19 45.5t46 18.5t45.5 -18.5t18.5 -45.5t-18.5 -45.5t-45.5 -18.5zM418 733q-26 0 -45 19t-19 45t19 45t45 19
q27 0 45.5 -19t18.5 -45t-19 -45t-45 -19zM328 617q-96 0 -149 -74t-53 -208q0 -136 53 -210.5t148 -74.5q93 0 147.5 77.5t54.5 210.5q0 134 -52 206.5t-149 72.5z" />
    <glyph glyph-name="Oslash" unicode="&#xd8;" horiz-adv-x="655" 
d="M330 689q67 0 130 -29l35 64q7 13 19 13h44q9 0 9 -10q0 -1 -1 -3l-52 -100q42 -50 60 -84q43 -83 43 -204q0 -164 -77.5 -261t-208.5 -97q-73 0 -140 30l-32 -62q-7 -13 -19 -13h-47q-8 0 -8 8q0 3 1 5l54 100q-102 101 -102 275q0 170 78.5 269t213.5 99zM174 115
l256 483q-40 23 -98 23q-98 0 -152 -77.5t-54 -218.5q0 -130 48 -210zM477 548l-255 -480q45 -23 97 -23q101 0 155.5 73t54.5 208q0 130 -38 200z" />
    <glyph glyph-name="Ugrave" unicode="&#xd9;" horiz-adv-x="710" 
d="M207 513l-2 -64l-4 -81v-154q0 -70 15.5 -102t58.5 -50q40 -17 82 -17q55 0 94 21t50.5 56.5t12.5 90.5l2 257q0 76 -2 86q-9 51 -51 51q-7 0 -20 -2q-19 -3 -27 -3q-13 0 -22.5 10t-9.5 23q0 36 44 36q7 0 14 -1l59 -8q22 -3 50 -3q27 0 45 3l43 7q18 3 24 3
q42 0 42 -34t-41 -34h-11q-3 1 -10 1q-30 0 -37 -30t-7 -154v-175q0 -65 -4 -94q-8 -50 -34 -87q-60 -87 -203 -87q-176 0 -227 115q-16 35 -16 109q0 36 3 106.5t3 106.5v53q0 73 -1 82q-7 55 -39 55h-7q-5 -1 -9 -1.5t-13 -0.5q-42 0 -42 34t38 34q16 0 34 -3q49 -8 91 -8
q43 0 99 9q12 2 26 2q41 0 41 -34t-35 -34q-8 0 -24 2.5t-24 2.5q-32 0 -43 -34q-5 -15 -6 -61zM275 861q15 0 31 -10l136 -85q25 -16 25 -30q0 -23 -25 -23q-7 0 -14 3l-153 66q-38 16 -38 39q0 17 11 28.5t27 11.5z" />
    <glyph glyph-name="Uacute" unicode="&#xda;" horiz-adv-x="710" 
d="M207 513l-2 -64l-4 -81v-154q0 -70 15.5 -102t58.5 -50q40 -17 82 -17q55 0 94 21t50.5 56.5t12.5 90.5l2 257q0 76 -2 86q-9 51 -51 51q-7 0 -20 -2q-19 -3 -27 -3q-13 0 -22.5 10t-9.5 23q0 36 44 36q7 0 14 -1l59 -8q22 -3 50 -3q27 0 45 3l43 7q18 3 24 3
q42 0 42 -34t-41 -34h-11q-3 1 -10 1q-30 0 -37 -30t-7 -154v-175q0 -65 -4 -94q-8 -50 -34 -87q-60 -87 -203 -87q-176 0 -227 115q-16 35 -16 109q0 36 3 106.5t3 106.5v53q0 73 -1 82q-7 55 -39 55h-7q-5 -1 -9 -1.5t-13 -0.5q-42 0 -42 34t38 34q16 0 34 -3q49 -8 91 -8
q43 0 99 9q12 2 26 2q41 0 41 -34t-35 -34q-8 0 -24 2.5t-24 2.5q-32 0 -43 -34q-5 -15 -6 -61zM486 821q0 -23 -37 -39l-153 -66q-7 -3 -15 -3q-25 0 -25 23q0 14 25 30l136 85q16 10 31 10q38 0 38 -40z" />
    <glyph glyph-name="Ucircumflex" unicode="&#xdb;" horiz-adv-x="710" 
d="M207 513l-2 -64l-4 -81v-154q0 -70 15.5 -102t58.5 -50q40 -17 82 -17q55 0 94 21t50.5 56.5t12.5 90.5l2 257q0 76 -2 86q-9 51 -51 51q-7 0 -20 -2q-19 -3 -27 -3q-13 0 -22.5 10t-9.5 23q0 36 44 36q7 0 14 -1l59 -8q22 -3 50 -3q27 0 45 3l43 7q18 3 24 3
q42 0 42 -34t-41 -34h-11q-3 1 -10 1q-30 0 -37 -30t-7 -154v-175q0 -65 -4 -94q-8 -50 -34 -87q-60 -87 -203 -87q-176 0 -227 115q-16 35 -16 109q0 36 3 106.5t3 106.5v53q0 73 -1 82q-7 55 -39 55h-7q-5 -1 -9 -1.5t-13 -0.5q-42 0 -42 34t38 34q16 0 34 -3q49 -8 91 -8
q43 0 99 9q12 2 26 2q41 0 41 -34t-35 -34q-8 0 -24 2.5t-24 2.5q-32 0 -43 -34q-5 -15 -6 -61zM474 730l-120 56l-139 -65q-12 -4 -18 -4h-1q-22 0 -22 19q0 11 23 27l136 95q11 8 21 8t21 -8l135 -95q23 -16 23 -27q0 -19 -22 -19q-7 0 -19 4z" />
    <glyph glyph-name="Udieresis" unicode="&#xdc;" horiz-adv-x="710" 
d="M207 513l-2 -64l-4 -81v-154q0 -70 15.5 -102t58.5 -50q40 -17 82 -17q55 0 94 21t50.5 56.5t12.5 90.5l2 257q0 76 -2 86q-9 51 -51 51q-7 0 -20 -2q-19 -3 -27 -3q-13 0 -22.5 10t-9.5 23q0 36 44 36q7 0 14 -1l59 -8q22 -3 50 -3q27 0 45 3l43 7q18 3 24 3
q42 0 42 -34t-41 -34h-11q-3 1 -10 1q-30 0 -37 -30t-7 -154v-175q0 -65 -4 -94q-8 -50 -34 -87q-60 -87 -203 -87q-176 0 -227 115q-16 35 -16 109q0 36 3 106.5t3 106.5v53q0 73 -1 82q-7 55 -39 55h-7q-5 -1 -9 -1.5t-13 -0.5q-42 0 -42 34t38 34q16 0 34 -3q49 -8 91 -8
q43 0 99 9q12 2 26 2q41 0 41 -34t-35 -34q-8 0 -24 2.5t-24 2.5q-32 0 -43 -34q-5 -15 -6 -61zM272 733q-27 0 -46 18.5t-19 45.5t19 45.5t46 18.5q26 0 45 -18.5t19 -45.5t-19 -45.5t-45 -18.5zM452 733q-27 0 -46 19t-19 45t19 45t46 19q26 0 45 -18.5t19 -45.5
t-19 -45.5t-45 -18.5z" />
    <glyph glyph-name="germandbls" unicode="&#xdf;" 
d="M429 -17q-67 0 -111 45q-1 -39 -32 -39q-34 0 -34 44q0 15 2 27q5 31 5 53q0 12 -2.5 36t-2.5 36q0 42 35 42q31 0 31 -43v-16q-1 -5 -1 -17q0 -47 26 -74.5t71 -27.5t75.5 31.5t30.5 77.5q0 38 -21 63t-90 69l-58 37q-44 28 -44 66q0 31 48 69.5t63.5 58t15.5 41.5
q0 29 -26 48t-66 19q-79 0 -113 -64q-30 -56 -30 -165v-66l6 -276q1 -62 -45 -62q-8 0 -22.5 3t-22.5 3q-9 0 -27.5 -3t-26.5 -3q-43 0 -43 34q0 32 37 32q13 0 19 -1q15 -4 25 -4q24 0 29 41q1 8 1 58v19v42q-1 22 -1 23v65q0 67 -1 74q-4 58 -27 58q-9 0 -18 -2h-5
q-4 -1 -6 -1q-38 0 -38 33q0 32 32 32q4 0 20 -2q13 -4 26 -4q22 0 32 44q20 87 85 129q45 29 115 29q73 0 122.5 -40.5t49.5 -99.5q0 -57 -52 -97l-40 -31q-23 -18 -23 -29q0 -18 38 -40q66 -38 90 -56t44 -46q29 -40 29 -93q0 -75 -51 -127.5t-123 -52.5z" />
    <glyph glyph-name="agrave" unicode="&#xe0;" horiz-adv-x="564" 
d="M469 -13q-82 0 -101 71q-51 -75 -160 -75q-81 0 -129.5 40t-48.5 107q0 83 71 122q27 15 46.5 19.5t78.5 11.5q84 9 109.5 25t25.5 59q0 41 -28.5 64.5t-79.5 23.5q-45 0 -84 -25q-15 -10 -15 -21q0 -4 9 -10q14 -10 14 -34q0 -20 -14.5 -33t-36.5 -13q-26 0 -43.5 18
t-17.5 44q0 56 55.5 96t134.5 40q182 0 182 -175v-202q0 -48 2 -57q6 -35 34 -35q35 0 35 64v49q0 32 31 32q33 0 33 -48v-5l-1 -57q-2 -96 -102 -96zM165 699q13 0 29 -10l126 -79q21 -13 21 -26q0 -24 -21 -24q-1 0 -13 3l-142 62q-35 15 -35 38q0 36 35 36zM358 186l1 71
q-22 -20 -46.5 -28t-87.5 -14q-114 -11 -114 -84q0 -38 27.5 -60t74.5 -22q67 0 105.5 36.5t39.5 100.5z" />
    <glyph glyph-name="aacute" unicode="&#xe1;" horiz-adv-x="564" 
d="M469 -13q-82 0 -101 71q-51 -75 -160 -75q-81 0 -129.5 40t-48.5 107q0 83 71 122q27 15 46.5 19.5t78.5 11.5q84 9 109.5 25t25.5 59q0 41 -28.5 64.5t-79.5 23.5q-45 0 -84 -25q-15 -10 -15 -21q0 -4 9 -10q14 -10 14 -34q0 -20 -14.5 -33t-36.5 -13q-26 0 -43.5 18
t-17.5 44q0 56 55.5 96t134.5 40q182 0 182 -175v-202q0 -48 2 -57q6 -35 34 -35q35 0 35 64v49q0 32 31 32q33 0 33 -48v-5l-1 -57q-2 -96 -102 -96zM377 665q0 -25 -35 -40l-143 -62q-12 -3 -13 -3q-21 0 -21 24q0 13 21 26l126 79q16 10 30 10q35 0 35 -34zM358 186l1 71
q-22 -20 -46.5 -28t-87.5 -14q-114 -11 -114 -84q0 -38 27.5 -60t74.5 -22q67 0 105.5 36.5t39.5 100.5z" />
    <glyph glyph-name="acircumflex" unicode="&#xe2;" horiz-adv-x="564" 
d="M469 -13q-82 0 -101 71q-51 -75 -160 -75q-81 0 -129.5 40t-48.5 107q0 83 71 122q27 15 46.5 19.5t78.5 11.5q84 9 109.5 25t25.5 59q0 41 -28.5 64.5t-79.5 23.5q-45 0 -84 -25q-15 -10 -15 -21q0 -4 9 -10q14 -10 14 -34q0 -20 -14.5 -33t-36.5 -13q-26 0 -43.5 18
t-17.5 44q0 56 55.5 96t134.5 40q182 0 182 -175v-202q0 -48 2 -57q6 -35 34 -35q35 0 35 64v49q0 32 31 32q33 0 33 -48v-5l-1 -57q-2 -96 -102 -96zM372 577l-111 52l-112 -52q-26 -12 -35 -12q-20 0 -20 17q0 9 22 25l125 89q12 7 20 7q9 0 19 -7l126 -89q7 -5 16 -11
q5 -4 6 -12v-2q0 -17 -20 -17q-10 0 -36 12zM358 186l1 71q-22 -20 -46.5 -28t-87.5 -14q-114 -11 -114 -84q0 -38 27.5 -60t74.5 -22q67 0 105.5 36.5t39.5 100.5z" />
    <glyph glyph-name="atilde" unicode="&#xe3;" horiz-adv-x="564" 
d="M469 -13q-82 0 -101 71q-51 -75 -160 -75q-81 0 -129.5 40t-48.5 107q0 83 71 122q27 15 46.5 19.5t78.5 11.5q84 9 109.5 25t25.5 59q0 41 -28.5 64.5t-79.5 23.5q-45 0 -84 -25q-15 -10 -15 -21q0 -4 9 -10q14 -10 14 -34q0 -20 -14.5 -33t-36.5 -13q-26 0 -43.5 18
t-17.5 44q0 56 55.5 96t134.5 40q182 0 182 -175v-202q0 -48 2 -57q6 -35 34 -35q35 0 35 64v49q0 32 31 32q33 0 33 -48v-5l-1 -57q-2 -96 -102 -96zM202 678q26 0 68 -14l36 -12q18 -6 31 -6q23 0 40 16l14 13q5 5 11 5q14 0 14 -15q0 -31 -30 -55.5t-68 -24.5
q-23 0 -63 13q-56 18 -72 18q-29 0 -43 -18l-8 -10q-7 -9 -13 -9q-13 0 -13 15q0 34 29 59t67 25zM358 186l1 71q-22 -20 -46.5 -28t-87.5 -14q-114 -11 -114 -84q0 -38 27.5 -60t74.5 -22q67 0 105.5 36.5t39.5 100.5z" />
    <glyph glyph-name="adieresis" unicode="&#xe4;" horiz-adv-x="564" 
d="M469 -13q-82 0 -101 71q-51 -75 -160 -75q-81 0 -129.5 40t-48.5 107q0 83 71 122q27 15 46.5 19.5t78.5 11.5q84 9 109.5 25t25.5 59q0 41 -28.5 64.5t-79.5 23.5q-45 0 -84 -25q-15 -10 -15 -21q0 -4 9 -10q14 -10 14 -34q0 -20 -14.5 -33t-36.5 -13q-26 0 -43.5 18
t-17.5 44q0 56 55.5 96t134.5 40q182 0 182 -175v-202q0 -48 2 -57q6 -35 34 -35q35 0 35 64v49q0 32 31 32q33 0 33 -48v-5l-1 -57q-2 -96 -102 -96zM167 571q-23 0 -39.5 16.5t-16.5 39.5t16 39.5t39 16.5t39.5 -16.5t16.5 -39.5t-16 -39.5t-39 -16.5zM344 571
q-22 0 -38.5 16.5t-16.5 39.5t16 39.5t39 16.5t39.5 -16.5t16.5 -39.5t-16.5 -39.5t-39.5 -16.5zM358 186l1 71q-22 -20 -46.5 -28t-87.5 -14q-114 -11 -114 -84q0 -38 27.5 -60t74.5 -22q67 0 105.5 36.5t39.5 100.5z" />
    <glyph glyph-name="aring" unicode="&#xe5;" horiz-adv-x="564" 
d="M469 -13q-82 0 -101 71q-51 -75 -160 -75q-81 0 -129.5 40t-48.5 107q0 83 71 122q27 15 46.5 19.5t78.5 11.5q84 9 109.5 25t25.5 59q0 41 -28.5 64.5t-79.5 23.5q-45 0 -84 -25q-15 -10 -15 -21q0 -4 9 -10q14 -10 14 -34q0 -20 -14.5 -33t-36.5 -13q-26 0 -43.5 18
t-17.5 44q0 56 55.5 96t134.5 40q182 0 182 -175v-202q0 -48 2 -57q6 -35 34 -35q35 0 35 64v49q0 32 31 32q33 0 33 -48v-5l-1 -57q-2 -96 -102 -96zM256 550q-38 0 -65.5 27t-27.5 64q0 38 27.5 65t65.5 27t65 -27t27 -65t-27 -64.5t-65 -26.5zM358 186l1 71
q-22 -20 -46.5 -28t-87.5 -14q-114 -11 -114 -84q0 -38 27.5 -60t74.5 -22q67 0 105.5 36.5t39.5 100.5zM256 687q-20 0 -33.5 -13.5t-13.5 -32.5t14 -32.5t33 -13.5t32 13.5t13 32.5t-13 32.5t-32 13.5z" />
    <glyph glyph-name="ae" unicode="&#xe6;" horiz-adv-x="837" 
d="M380 474q22 -19 37 -56q70 99 175 99q92 0 151.5 -65t59.5 -166q0 -50 -26 -50h-315q-22 0 -22 -19q0 -72 42 -120t105 -48q45 0 79.5 23.5t48.5 62.5l8 23q8 22 32 22q16 0 27 -10.5t11 -25.5q0 -61 -66 -111t-146 -50q-117 0 -177 99q-55 -99 -183 -99q-87 0 -139 41.5
t-52 111.5q0 41 22.5 79t59.5 57q59 31 170 31h61q16 0 20 5t4 24q0 57 -32.5 90t-88.5 33q-45 0 -77 -21q-15 -10 -15 -19q0 -2 4 -8q13 -19 13 -34q0 -22 -16 -36.5t-39 -14.5q-25 0 -41.5 16.5t-16.5 42.5q0 55 57 95.5t133 40.5q83 0 132 -43zM448 317q0 -14 23 -14h227
q23 0 23 13q0 54 -39.5 94.5t-92.5 40.5q-55 0 -98 -40.5t-43 -93.5zM364 214q0 15 -3.5 18.5t-18.5 3.5h-80q-151 0 -151 -98q0 -40 31.5 -64.5t81.5 -24.5q73 0 111 46q29 35 29 105v14z" />
    <glyph glyph-name="ccedilla" unicode="&#xe7;" horiz-adv-x="510" 
d="M330 330q0 40 50 46q-5 35 -33.5 55t-73.5 20q-69 0 -111 -55t-42 -146q0 -94 39.5 -147.5t109.5 -53.5q44 0 76.5 25t44.5 69q10 35 12 40q11 20 32 20q17 0 28 -11t11 -28q0 -24 -16 -59t-38 -59q-46 -51 -138 -63l-13 -31q18 3 26 3q36 0 61.5 -22t25.5 -53
q0 -35 -32 -59t-79 -24q-41 0 -73 18t-32 41q0 9 7 16.5t15 7.5q11 0 18 -8l11 -12q17 -19 51 -19q52 0 52 38q0 35 -45 35q-11 0 -23 -4l-24 -8q-3 -1 -11 -1q-13 0 -13 11q0 4 5 16l24 58q-53 9 -84 29q-109 72 -109 229q0 124 64.5 198.5t171.5 74.5q80 0 133 -43.5
t53 -110.5q0 -37 -20.5 -61t-52.5 -24q-25 0 -41.5 15t-16.5 37z" />
    <glyph glyph-name="egrave" unicode="&#xe8;" horiz-adv-x="528" 
d="M493 294q0 -38 -5 -46.5t-29 -8.5h-318q-13 0 -17 -3.5t-4 -11.5q0 -75 45 -125t112 -50q44 0 80.5 24t47.5 61l9 29q7 24 33 24q37 0 37 -38q0 -65 -66 -115.5t-150 -50.5q-105 0 -167 70.5t-62 189.5q0 122 66 198t172 76q94 0 155 -63t61 -160zM193 699q13 0 29 -10
l127 -79q20 -12 20 -26q0 -24 -21 -24q-1 0 -13 3l-142 62q-35 15 -35 38q0 15 10.5 25.5t24.5 10.5zM130 320q0 -14 22 -14h239q21 0 21 14q0 53 -40 92t-94 39q-56 0 -102 -40.5t-46 -90.5z" />
    <glyph glyph-name="eacute" unicode="&#xe9;" horiz-adv-x="528" 
d="M493 294q0 -38 -5 -46.5t-29 -8.5h-318q-13 0 -17 -3.5t-4 -11.5q0 -75 45 -125t112 -50q44 0 80.5 24t47.5 61l9 29q7 24 33 24q37 0 37 -38q0 -65 -66 -115.5t-150 -50.5q-105 0 -167 70.5t-62 189.5q0 122 66 198t172 76q94 0 155 -63t61 -160zM379 665q0 -24 -36 -40
l-142 -62q-12 -3 -13 -3q-21 0 -21 24q0 13 21 26l126 79q16 10 30 10q35 0 35 -34zM130 320q0 -14 22 -14h239q21 0 21 14q0 53 -40 92t-94 39q-56 0 -102 -40.5t-46 -90.5z" />
    <glyph glyph-name="ecircumflex" unicode="&#xea;" horiz-adv-x="528" 
d="M493 294q0 -38 -5 -46.5t-29 -8.5h-318q-13 0 -17 -3.5t-4 -11.5q0 -75 45 -125t112 -50q44 0 80.5 24t47.5 61l9 29q7 24 33 24q37 0 37 -38q0 -65 -66 -115.5t-150 -50.5q-105 0 -167 70.5t-62 189.5q0 122 66 198t172 76q94 0 155 -63t61 -160zM391 577l-112 52
l-111 -52q-26 -12 -35 -12q-21 0 -21 17q0 9 22 25l126 89q10 7 19 7q8 0 20 -7l126 -89q7 -5 15 -11q5 -4 6 -12v-2q0 -17 -20 -17q-9 0 -35 12zM130 320q0 -14 22 -14h239q21 0 21 14q0 53 -40 92t-94 39q-56 0 -102 -40.5t-46 -90.5z" />
    <glyph glyph-name="edieresis" unicode="&#xeb;" horiz-adv-x="528" 
d="M493 294q0 -38 -5 -46.5t-29 -8.5h-318q-13 0 -17 -3.5t-4 -11.5q0 -75 45 -125t112 -50q44 0 80.5 24t47.5 61l9 29q7 24 33 24q37 0 37 -38q0 -65 -66 -115.5t-150 -50.5q-105 0 -167 70.5t-62 189.5q0 122 66 198t172 76q94 0 155 -63t61 -160zM190 571
q-22 0 -38.5 16.5t-16.5 39.5t16 39.5t39 16.5t39.5 -16.5t16.5 -39.5t-16.5 -39.5t-39.5 -16.5zM368 571q-22 0 -38.5 16.5t-16.5 39.5t16 39.5t39 16.5t39.5 -16.5t16.5 -39.5t-16.5 -39.5t-39.5 -16.5zM130 320q0 -14 22 -14h239q21 0 21 14q0 53 -40 92t-94 39
q-56 0 -102 -40.5t-46 -90.5z" />
    <glyph glyph-name="igrave" unicode="&#xec;" horiz-adv-x="310" 
d="M201 290v-130q0 -50 1 -59q5 -45 27 -45q5 0 25 5q5 2 15 2q38 0 38 -33q0 -14 -12.5 -24t-31.5 -10q-16 0 -48.5 4.5t-48.5 4.5q-26 0 -58 -4q-39 -5 -52 -5q-40 0 -40 34q0 33 34 33q8 0 23.5 -3t23.5 -3q24 0 29 64v87v82v87q-5 63 -30 63q-8 0 -22.5 -3.5t-21.5 -3.5
q-36 0 -36 32q0 34 44 34q19 0 27 -1q32 -4 41 -4q8 0 24.5 2.5t24.5 2.5q29 0 29 -39q0 -4 -1 -12t-1 -12q-1 -8 -2 -62q-1 -41 -1 -84zM63 699q13 0 29 -10l127 -79q21 -13 21 -26q0 -24 -22 -24q-1 0 -13 3l-142 62q-35 15 -35 38q0 15 10.5 25.5t24.5 10.5z" />
    <glyph glyph-name="iacute" unicode="&#xed;" horiz-adv-x="310" 
d="M201 290v-130q0 -50 1 -59q5 -45 27 -45q5 0 25 5q5 2 15 2q38 0 38 -33q0 -14 -12.5 -24t-31.5 -10q-16 0 -48.5 4.5t-48.5 4.5q-26 0 -58 -4q-39 -5 -52 -5q-40 0 -40 34q0 33 34 33q8 0 23.5 -3t23.5 -3q24 0 29 64v87v82v87q-5 63 -30 63q-8 0 -22.5 -3.5t-21.5 -3.5
q-36 0 -36 32q0 34 44 34q19 0 27 -1q32 -4 41 -4q8 0 24.5 2.5t24.5 2.5q29 0 29 -39q0 -4 -1 -12t-1 -12q-1 -8 -2 -62q-1 -41 -1 -84zM250 665q0 -24 -36 -40l-142 -62q-12 -3 -13 -3q-21 0 -21 24q0 13 21 26l126 79q16 10 30 10q35 0 35 -34z" />
    <glyph glyph-name="icircumflex" unicode="&#xee;" horiz-adv-x="309" 
d="M201 290v-130q0 -50 1 -59q5 -45 27 -45q5 0 25 5q5 2 15 2q38 0 38 -33q0 -14 -12.5 -24t-31.5 -10q-16 0 -48.5 4.5t-48.5 4.5q-26 0 -58 -4q-39 -5 -52 -5q-40 0 -40 34q0 33 34 33q8 0 23.5 -3t23.5 -3q24 0 29 64v87v82v87q-5 63 -30 63q-8 0 -22.5 -3.5t-21.5 -3.5
q-36 0 -36 32q0 34 44 34q19 0 27 -1q32 -4 41 -4q8 0 24.5 2.5t24.5 2.5q29 0 29 -39q0 -4 -1 -12t-1 -12q-1 -8 -2 -62q-1 -41 -1 -84zM242 577l-97 52l-97 -52q-22 -12 -31 -12q-17 0 -17 17q0 10 18 25l110 89q9 7 17 7q7 0 17 -7l109 -89q19 -16 19 -25q0 -17 -17 -17
q-9 0 -31 12z" />
    <glyph glyph-name="idieresis" unicode="&#xef;" horiz-adv-x="310" 
d="M201 290v-130q0 -50 1 -59q5 -45 27 -45q5 0 25 5q5 2 15 2q38 0 38 -33q0 -14 -12.5 -24t-31.5 -10q-16 0 -48.5 4.5t-48.5 4.5q-25 0 -57 -4q-39 -5 -53 -5q-40 0 -40 34q0 33 34 33q8 0 23.5 -3t23.5 -3q24 0 29 64v87v82v87q-5 63 -30 63q-8 0 -22.5 -3.5t-21.5 -3.5
q-36 0 -36 32q0 34 44 34q19 0 27 -1q32 -4 41 -4q8 0 24.5 2.5t24.5 2.5q29 0 29 -39q0 -16 -2 -43q-2 -31 -2 -43q-1 -41 -1 -84zM56 571q-23 0 -39.5 16.5t-16.5 39.5t16.5 39.5t39.5 16.5t39.5 -16.5t16.5 -39.5t-16.5 -39.5t-39.5 -16.5zM234 571q-23 0 -39.5 16.5
t-16.5 39.5t16.5 39.5t39.5 16.5t39.5 -16.5t16.5 -39.5t-16.5 -39.5t-39.5 -16.5z" />
    <glyph glyph-name="ntilde" unicode="&#xf1;" 
d="M192 469v-28q60 76 160 76q54 0 102 -27.5t65 -68.5q14 -34 14 -89v-190q0 -43 1 -51q5 -34 27 -34q9 0 23.5 2.5t20.5 2.5q13 0 22.5 -9t9.5 -22q0 -15 -12 -25t-29 -10q-14 0 -46 4t-60 4q-26 0 -43 -2q-50 -6 -53 -6q-40 0 -40 35q0 31 34 31q8 0 18 -2q19 -4 24 -4
q24 0 26 55l2 51l1 61v76q0 53 -5 73q-9 38 -39 59q-33 23 -75 23q-80 0 -115 -57q-24 -39 -24 -133v-133q0 -44 6 -60t22 -16q8 0 22 4t23 4q31 0 31 -34q0 -33 -40 -33q-8 0 -52 6q-22 3 -49 3q-21 0 -56 -4q-44 -5 -50 -5q-42 0 -42 34q0 32 32 32q5 0 18.5 -3t26.5 -3
q30 0 31 58l2 111v121l-2 35q-2 34 -8.5 46.5t-22.5 12.5q-7 0 -20.5 -2.5t-20.5 -2.5q-36 0 -36 32q0 33 45 33q6 0 10 -1l37 -4q16 0 28 2q26 2 27 2q29 0 29 -30zM273 678q24 0 67 -14l37 -12q18 -6 31 -6q23 0 40 16l14 13q5 5 11 5q14 0 14 -15q0 -31 -30 -55.5
t-68 -24.5q-23 0 -63 13q-56 18 -72 18q-29 0 -43 -18l-8 -10q-7 -9 -13 -9q-14 0 -14 15q0 34 29.5 59t67.5 25z" />
    <glyph glyph-name="ograve" unicode="&#xf2;" horiz-adv-x="546" 
d="M269 -17q-105 0 -168 72.5t-63 194.5t63.5 194.5t170.5 72.5q109 0 172 -71t63 -193t-65 -196t-173 -74zM189 699q13 0 29 -10l127 -79q20 -12 20 -26q0 -24 -21 -24q-1 0 -13 3l-142 62q-35 15 -35 38q0 36 35 36zM274 451q-70 0 -110 -49t-44 -139v-13
q0 -94 39.5 -147.5t110.5 -53.5q73 0 114.5 53.5t41.5 148.5q0 200 -152 200z" />
    <glyph glyph-name="oacute" unicode="&#xf3;" horiz-adv-x="546" 
d="M269 -17q-105 0 -168 72.5t-63 194.5t63.5 194.5t170.5 72.5q109 0 172 -71t63 -193t-65 -196t-173 -74zM381 665q0 -25 -35 -40l-142 -62q-15 -3 -14 -3q-20 0 -20 24q0 13 20 26l126 79q16 10 31 10q34 0 34 -34zM274 451q-70 0 -110 -49t-44 -139v-13
q0 -94 39.5 -147.5t110.5 -53.5q73 0 114.5 53.5t41.5 148.5q0 200 -152 200z" />
    <glyph glyph-name="ocircumflex" unicode="&#xf4;" horiz-adv-x="546" 
d="M269 -17q-105 0 -168 72.5t-63 194.5t63.5 194.5t170.5 72.5q109 0 172 -71t63 -193t-65 -196t-173 -74zM384 577l-111 52l-112 -52q-26 -12 -35 -12q-20 0 -20 17q0 9 22 25l126 89q10 7 19 7t19 -7l126 -89q7 -5 16 -11q5 -4 6 -12v-2q0 -17 -20 -17q-10 0 -36 12z
M274 451q-70 0 -110 -49t-44 -139v-13q0 -94 39.5 -147.5t110.5 -53.5q73 0 114.5 53.5t41.5 148.5q0 200 -152 200z" />
    <glyph glyph-name="otilde" unicode="&#xf5;" horiz-adv-x="546" 
d="M269 -17q-105 0 -168 72.5t-63 194.5t63.5 194.5t170.5 72.5q109 0 172 -71t63 -193t-65 -196t-173 -74zM214 678q26 0 68 -14l36 -12q18 -6 31 -6q26 0 40 16l14 13q5 5 11 5q14 0 14 -15q0 -32 -29.5 -56t-68.5 -24q-23 0 -63 13q-56 18 -72 18q-29 0 -43 -18l-8 -10
q-7 -9 -13 -9q-13 0 -13 15q0 34 29 59t67 25zM274 451q-70 0 -110 -49t-44 -139v-13q0 -94 39.5 -147.5t110.5 -53.5q73 0 114.5 53.5t41.5 148.5q0 200 -152 200z" />
    <glyph glyph-name="odieresis" unicode="&#xf6;" horiz-adv-x="546" 
d="M269 -17q-105 0 -168 72.5t-63 194.5t63.5 194.5t170.5 72.5q109 0 172 -71t63 -193t-65 -196t-173 -74zM184 571q-23 0 -39.5 16.5t-16.5 39.5t16.5 39.5t39.5 16.5t39.5 -16.5t16.5 -39.5t-16.5 -39.5t-39.5 -16.5zM362 571q-23 0 -39.5 16.5t-16.5 39.5t16.5 39.5
t39.5 16.5t39.5 -16.5t16.5 -39.5t-16.5 -39.5t-39.5 -16.5zM274 451q-70 0 -110 -49t-44 -139v-13q0 -94 39.5 -147.5t110.5 -53.5q73 0 114.5 53.5t41.5 148.5q0 200 -152 200z" />
    <glyph glyph-name="divide" unicode="&#xf7;" horiz-adv-x="500" 
d="M200 515q0 21 14.5 35.5t35.5 14.5q20 0 34.5 -15t14.5 -35t-14.5 -35t-34.5 -15t-35 15t-15 35zM200 151q0 20 15 35t35 15t34.5 -15t14.5 -35t-14.5 -34.5t-34.5 -14.5t-35 14.5t-15 34.5zM33 299v68h434v-68h-434z" />
    <glyph glyph-name="oslash" unicode="&#xf8;" horiz-adv-x="546" 
d="M280 517q58 0 105 -27l31 50q9 15 20 15h37q9 0 9 -8q0 -4 -2 -7l-50 -80q77 -74 77 -200q0 -125 -64.5 -201t-172.5 -76q-60 0 -115 28l-38 -61q-9 -15 -17 -15h-41q-7 0 -7 8q0 5 2 7l56 93q-72 82 -72 189q0 126 67.5 205.5t174.5 79.5zM155 101l193 337
q-35 15 -64 15q-77 0 -121 -58.5t-44 -159.5q0 -78 36 -134zM390 404l-196 -339q36 -18 74 -18q75 0 118.5 58.5t43.5 159.5q0 87 -40 139z" />
    <glyph glyph-name="ugrave" unicode="&#xf9;" horiz-adv-x="619" 
d="M447 25v31q-53 -73 -157 -73q-118 0 -164 73q-20 32 -22 75q-1 21 -1 88v83q0 137 -29 137q-6 0 -19 -2.5t-20 -2.5q-35 0 -35 33q0 32 43 32q10 0 29.5 -2t29.5 -2q9 0 31 3q15 2 17 2q31 0 31 -38v-21l-1 -65l-3 -74v-65q0 -87 14 -125q23 -63 110 -63q43 0 76 19.5
t46 51.5q16 39 16 148v55v65q-5 48 -26 48q-11 0 -18 -2h-12q-35 0 -35 31q0 35 39 35q9 0 27.5 -2t27.5 -2q8 0 24 1.5t24 1.5q30 0 30 -32q0 -14 -2 -22q-5 -38 -5 -112v-154q0 -61 1 -68q5 -53 28 -53q7 0 20 2.5t20 2.5q34 0 34 -33q0 -34 -42 -34q-9 0 -26 2
q-25 3 -31 3q-3 0 -21 -2q-12 -3 -21 -3q-28 0 -28 29zM218 699q13 0 29 -10l126 -79q21 -13 21 -26q0 -24 -22 -24q-1 0 -13 3l-142 62q-35 15 -35 38q0 15 10.5 25.5t25.5 10.5z" />
    <glyph glyph-name="uacute" unicode="&#xfa;" horiz-adv-x="619" 
d="M447 25v31q-53 -73 -157 -73q-118 0 -164 73q-20 32 -22 75q-1 21 -1 88v83q0 137 -29 137q-6 0 -19 -2.5t-20 -2.5q-35 0 -35 33q0 32 43 32q10 0 29.5 -2t29.5 -2q9 0 31 3q15 2 17 2q31 0 31 -38v-21l-1 -65l-3 -74v-65q0 -87 14 -125q23 -63 110 -63q43 0 76 19.5
t46 51.5q16 39 16 148v55v65q-5 48 -26 48q-11 0 -18 -2h-12q-35 0 -35 31q0 35 39 35q9 0 27.5 -2t27.5 -2q8 0 24 1.5t24 1.5q30 0 30 -32q0 -14 -2 -22q-5 -38 -5 -112v-154q0 -61 1 -68q5 -53 28 -53q7 0 20 2.5t20 2.5q34 0 34 -33q0 -34 -42 -34q-9 0 -26 2
q-25 3 -31 3q-3 0 -21 -2q-12 -3 -21 -3q-28 0 -28 29zM431 665q0 -24 -36 -40l-142 -62q-12 -3 -13 -3q-21 0 -21 24q0 13 21 26l126 79q16 10 30 10q35 0 35 -34z" />
    <glyph glyph-name="ucircumflex" unicode="&#xfb;" horiz-adv-x="619" 
d="M447 25v31q-53 -73 -157 -73q-118 0 -164 73q-20 32 -22 75q-1 21 -1 88v83q0 137 -29 137q-6 0 -19 -2.5t-20 -2.5q-35 0 -35 33q0 32 43 32q10 0 29.5 -2t29.5 -2q9 0 31 3q15 2 17 2q31 0 31 -38v-21l-1 -65l-3 -74v-65q0 -87 14 -125q23 -63 110 -63q43 0 76 19.5
t46 51.5q16 39 16 148v55v65q-5 48 -26 48q-11 0 -18 -2h-12q-35 0 -35 31q0 35 39 35q9 0 27.5 -2t27.5 -2q8 0 24 1.5t24 1.5q30 0 30 -32q0 -14 -2 -22q-5 -38 -5 -112v-154q0 -61 1 -68q5 -53 28 -53q7 0 20 2.5t20 2.5q34 0 34 -33q0 -34 -42 -34q-9 0 -26 2
q-25 3 -31 3q-3 0 -21 -2q-12 -3 -21 -3q-28 0 -28 29zM406 577l-111 52l-112 -52q-26 -12 -35 -12q-20 0 -20 17q0 10 21 25l126 89q10 7 20 7q9 0 19 -7l126 -89l14 -10t7 -13v-2q0 -17 -20 -17q-9 0 -35 12z" />
    <glyph glyph-name="udieresis" unicode="&#xfc;" horiz-adv-x="619" 
d="M447 25v31q-53 -73 -157 -73q-118 0 -164 73q-20 32 -22 75q-1 21 -1 88v83q0 137 -29 137q-6 0 -19 -2.5t-20 -2.5q-35 0 -35 33q0 32 43 32q10 0 29.5 -2t29.5 -2q9 0 31 3q15 2 17 2q31 0 31 -38v-21l-1 -65l-3 -74v-65q0 -87 14 -125q23 -63 110 -63q43 0 76 19.5
t46 51.5q16 39 16 148v55v65q-5 48 -26 48q-11 0 -18 -2h-12q-35 0 -35 31q0 35 39 35q9 0 27.5 -2t27.5 -2q8 0 24 1.5t24 1.5q30 0 30 -32q0 -14 -2 -22q-5 -38 -5 -112v-154q0 -61 1 -68q5 -53 28 -53q7 0 20 2.5t20 2.5q34 0 34 -33q0 -34 -42 -34q-9 0 -26 2
q-25 3 -31 3q-3 0 -21 -2q-12 -3 -21 -3q-28 0 -28 29zM207 571q-23 0 -39.5 16.5t-16.5 39.5t16.5 39.5t39.5 16.5t39.5 -16.5t16.5 -39.5t-16.5 -39.5t-39.5 -16.5zM385 571q-23 0 -39.5 16.5t-16.5 39.5t16.5 39.5t39.5 16.5t39.5 -16.5t16.5 -39.5t-16.5 -39.5
t-39.5 -16.5z" />
    <glyph glyph-name="ydieresis" unicode="&#xff;" horiz-adv-x="601" 
d="M196 404l115 -338l122 333q5 14 5 22q0 17 -23 17q-12 0 -19 -2q-16 -2 -21 -2q-33 0 -33 32q0 34 43 34q6 0 20 -2l36 -5q14 -2 30 -2q17 0 50 4t50 4q43 0 43 -33q0 -32 -33 -32q-10 0 -15 2q-13 3 -18 3q-19 0 -39 -51l-136 -340q-45 -113 -85 -164q-68 -87 -170 -87
q-61 0 -102.5 31t-41.5 75q0 31 18 50.5t47 19.5q23 0 38 -13.5t15 -33.5q0 -32 -29 -41q15 -22 57 -22q53 0 95.5 39.5t42.5 88.5q0 25 -27 93l-110 278l-12 32q-17 45 -39 45q-6 0 -21.5 -3t-20.5 -3q-35 0 -35 32q0 34 46 34q15 0 23 -1l40 -5h8q7 -1 12 -1q36 0 77 4
q31 3 41 3q42 0 42 -33t-38 -33q-6 0 -19 2.5t-19 2.5q-14 0 -14 -14q0 -8 4 -20zM222 571q-23 0 -39.5 16.5t-16.5 39.5t16.5 39.5t39.5 16.5t39 -16.5t16 -39.5t-16 -39.5t-39 -16.5zM400 571q-23 0 -39.5 16.5t-16.5 39.5t16.5 39.5t39.5 16.5t39 -16.5t16 -39.5
t-16.5 -39.5t-38.5 -16.5z" />
    <glyph glyph-name="dotlessi" unicode="&#x131;" horiz-adv-x="310" 
d="M201 290v-130q0 -50 1 -59q5 -45 27 -45q5 0 25 5q5 2 15 2q38 0 38 -33q0 -14 -12.5 -24t-31.5 -10q-16 0 -48.5 4.5t-48.5 4.5q-26 0 -58 -4q-39 -5 -52 -5q-40 0 -40 34q0 33 34 33q8 0 23.5 -3t23.5 -3q24 0 29 64v87v82v87q-5 63 -30 63q-8 0 -22.5 -3.5t-21.5 -3.5
q-36 0 -36 32q0 34 44 34q19 0 27 -1q32 -4 41 -4q8 0 24.5 2.5t24.5 2.5q29 0 29 -39q0 -4 -1 -12t-1 -12q-1 -8 -2 -62q-1 -41 -1 -84z" />
    <glyph glyph-name="OE" unicode="&#x152;" horiz-adv-x="1038" 
d="M322 685q119 0 198 -91q-2 8 -6 21.5t-4 26.5q0 12 12.5 20.5t30.5 8.5q13 0 50 -2t66 -2h69l91 1q13 0 41 2t43 2q51 0 51 -45q0 -18 -3.5 -52.5t-3.5 -52.5q0 -16 2.5 -46.5t2.5 -46.5q0 -42 -35 -42q-25 0 -32 22q-4 12 -4 45v53l1 12q1 16 1 26q0 42 -30 53
q-26 10 -126 10h-67q-47 0 -62 -12.5t-15 -51.5v-112q0 -30 13 -37q8 -4 30 -4h48q57 0 57 45q0 15 -3 30q-4 20 -4 34q0 38 36 38t36 -39q0 -7 -4 -35q-8 -55 -8 -111q0 -62 7 -107q3 -19 3 -32q0 -37 -35 -37q-34 0 -34 41q0 11 2.5 32t2.5 32q0 44 -53 44h-51
q-37 0 -41 -19q-2 -7 -2 -22v-165q0 -45 22 -55q12 -6 62 -6h106q77 0 99.5 17.5t22.5 76.5q0 13 -1 38t-1 37q0 52 36 52t36 -41q0 -19 -3 -56.5t-3 -56.5q0 -31 1 -43l3 -35v-6q0 -49 -47 -47l-48 2l-68 2l-72 3l-70 -2q-38 -1 -79 -2q-28 -3 -46 -3q-37 0 -37 30
q0 20 9 56q-30 -37 -43 -48q-58 -52 -152 -52q-130 0 -206.5 93.5t-76.5 253.5q0 163 77 260t208 97zM326 618q-93 0 -146.5 -75t-53.5 -206q0 -135 53 -211.5t146 -76.5q91 0 141 75.5t50 214.5q0 133 -49.5 206t-140.5 73z" />
    <glyph glyph-name="oe" unicode="&#x153;" horiz-adv-x="892" 
d="M631 -17q-64 0 -107 25t-78 83q-46 -108 -179 -108q-106 0 -167.5 70t-61.5 191q0 122 65 197.5t169 75.5q75 0 127 -40q32 -25 55 -72q58 112 189 112q99 0 157 -63.5t58 -171.5q0 -45 -26 -45h-320q-15 0 -18.5 -4.5t-3.5 -22.5q0 -67 44.5 -114t106.5 -47
q43 0 82 25.5t47 59.5l7 29q6 23 33 23q38 0 38 -40q0 -45 -44 -93q-64 -70 -173 -70zM502 319q0 -15 22 -15h228q14 0 19 3t5 17q0 53 -38.5 90t-93.5 37t-98.5 -40.5t-43.5 -91.5zM268 49q71 0 110.5 53t39.5 149q0 93 -39.5 146.5t-108.5 53.5t-109.5 -55t-40.5 -149
q0 -92 39.5 -145t108.5 -53z" />
    <glyph glyph-name="Ydieresis" unicode="&#x178;" horiz-adv-x="728" 
d="M325 199v19q-1 16 -1 27l-194 307q-19 30 -24 35q-15 15 -37 15q-12 0 -18 -1h-9q-7 -1 -10 -1q-46 0 -46 35q0 36 40 36q16 0 40 -4q48 -8 90 -8q31 0 93 9q21 3 36 3q41 0 41 -35q0 -34 -49 -34l-10 1h-25l-20 1q-12 1 -12 -8q0 -4 1 -5.5t5 -8.5l153 -260l155 260
q5 8 5 16q0 9 -13 9h-2l-18 -1l-26 -3q-17 -2 -26 -2q-41 0 -41 35t40 35q15 0 36 -3q56 -8 97 -8q43 0 95 8q20 3 34 3q38 0 38 -35q0 -32 -37 -32q-15 0 -23 2q-16 2 -22 2q-26 0 -42 -24l-15 -23l-197 -309v-42q0 -102 8.5 -127t42.5 -25q8 0 24.5 2.5t24.5 2.5
q31 0 31 -32q0 -36 -45 -36h-6q-4 1 -7 1l-55 7q-31 4 -61 4q-32 0 -61 -4l-51 -7q-2 0 -6 -1h-7q-45 0 -45 35q0 33 32 33q8 0 23.5 -2.5t23.5 -2.5q42 0 51 53q1 9 1 88zM275 733q-27 0 -46 18.5t-19 45.5t19 45.5t46 18.5t45.5 -18.5t18.5 -45.5t-19 -45.5t-45 -18.5z
M455 733q-27 0 -45.5 18.5t-18.5 45.5q0 26 18.5 45t45.5 19t45.5 -18.5t18.5 -45.5t-19 -45.5t-45 -18.5z" />
    <glyph glyph-name="florin" unicode="&#x192;" 
d="M539 585q0 15 13 32q-23 26 -64 26q-40 0 -63.5 -28.5t-23.5 -78.5q0 -16 12 -16h79q37 0 37 -32q0 -33 -44 -33h-82q-18 0 -22 -22l-59 -325q-23 -127 -63 -189q-57 -88 -158 -88q-53 0 -90.5 26t-37.5 63q0 54 53 54q48 0 48 -44q0 -9 -6 -24q22 -11 39 -11
q107 0 147 235l52 313q0 12 -8 12h-26q-34 0 -34 33q0 32 31 32h31q20 0 24 22l5 29q22 129 151 129q65 0 109.5 -30t44.5 -74q0 -23 -14 -37.5t-36 -14.5q-45 0 -45 41z" />
    <glyph glyph-name="circumflex" unicode="&#x2c6;" horiz-adv-x="492" 
d="M357 577l-111 52l-112 -52q-26 -12 -35 -12q-20 0 -20 17q0 10 21 25l126 89q12 7 20 7q9 0 19 -7l126 -89q7 -5 16 -11q5 -5 5 -12v-2q0 -17 -20 -17q-9 0 -35 12z" />
    <glyph glyph-name="caron" unicode="&#x2c7;" horiz-adv-x="492" 
d="M134 691l112 -53l111 53q25 12 35 12q20 0 20 -18q0 -10 -21 -25l-126 -89q-8 -6 -19 -6q-8 0 -20 6l-126 89q-21 15 -21 25q0 18 20 18q10 0 35 -12z" />
    <glyph glyph-name="breve" unicode="&#x2d8;" horiz-adv-x="491" 
d="M118 693q57 -57 128 -57q70 0 128 57q10 10 17 10q11 0 11 -14q0 -18 -11 -40q-18 -37 -59 -60t-86 -23q-46 0 -86.5 23t-58.5 60q-12 24 -12 40q0 14 13 14q6 0 16 -10z" />
    <glyph glyph-name="dotaccent" unicode="&#x2d9;" horiz-adv-x="492" 
d="M246 570q-24 0 -41 17t-17 40q0 24 17 41t41 17q23 0 40 -17t17 -41q0 -23 -17 -40t-40 -17z" />
    <glyph glyph-name="ring" unicode="&#x2da;" horiz-adv-x="492" 
d="M219 550q-38 0 -65 26.5t-27 64.5t27 65t65 27t65 -27t27 -65t-27 -64.5t-65 -26.5zM219 687q-19 0 -32.5 -13.5t-13.5 -32.5t13.5 -32.5t32.5 -13.5t32.5 13.5t13.5 32.5q0 20 -13 33t-33 13z" />
    <glyph glyph-name="ogonek" unicode="&#x2db;" horiz-adv-x="492" 
d="M202 -97q0 56 74 97h58l-11 -10q-59 -54 -59 -86q0 -50 61 -50q10 0 27.5 4.5t24.5 4.5q20 0 20 -20q0 -14 -22 -24t-55 -10q-53 0 -85.5 26t-32.5 68z" />
    <glyph glyph-name="tilde" unicode="&#x2dc;" horiz-adv-x="491" 
d="M187 678q24 0 67 -14l37 -12q18 -6 31 -6q23 0 40 16l14 13q3 5 11 5q14 0 14 -15q0 -31 -30 -55.5t-68 -24.5q-23 0 -63 13q-56 18 -72 18q-29 0 -43 -18l-8 -10q-7 -9 -13 -9q-14 0 -14 15q0 34 29.5 59t67.5 25z" />
    <glyph glyph-name="hungarumlaut" unicode="&#x2dd;" horiz-adv-x="491" 
d="M304 712q0 -14 -16 -32l-100 -112q-7 -10 -19 -10q-19 0 -19 19q0 6 9 21l78 124q14 23 33 23q14 0 24 -9.5t10 -23.5zM434 712q0 -13 -17 -32l-100 -112q-9 -10 -19 -10q-18 0 -18 19q0 8 8 21l78 124q14 23 33 23q14 0 24.5 -10t10.5 -23z" />
    <glyph glyph-name="gravecmb" unicode="&#x300;" horiz-adv-x="0" 
d="M-341 699q13 0 29 -10l126 -79q21 -13 21 -26q0 -24 -21 -24q1 0 -14 3l-142 62q-35 15 -35 38q0 15 10.5 25.5t25.5 10.5z" />
    <glyph glyph-name="acutecmb" unicode="&#x301;" horiz-adv-x="0" 
d="M-165 665q0 -25 -35 -40l-143 -62q-12 -3 -13 -3q-21 0 -21 24q0 13 21 26l126 79q16 10 30 10q35 0 35 -34z" />
    <glyph glyph-name="circumflexcmb" unicode="&#x302;" horiz-adv-x="0" 
d="M-159 577l-111 52l-112 -52q-26 -12 -35 -12q-20 0 -20 17q0 10 21 25l126 89q12 7 20 7q9 0 19 -7l126 -89q7 -5 16 -11q5 -5 5 -12v-2q0 -17 -20 -17q-9 0 -35 12z" />
    <glyph glyph-name="tildecmb" unicode="&#x303;" horiz-adv-x="0" 
d="M-329 678q24 0 67 -14l37 -12q18 -6 31 -6q23 0 40 16l14 13q3 5 11 5q14 0 14 -15q0 -31 -30 -55.5t-68 -24.5q-23 0 -63 13q-56 18 -72 18q-29 0 -43 -18l-8 -10q-7 -9 -13 -9q-14 0 -14 15q0 34 29.5 59t67.5 25z" />
    <glyph glyph-name="macroncmb" unicode="&#x304;" horiz-adv-x="0" 
d="M-417 627q0 32 37 32h220q36 0 36 -29q0 -14 -10.5 -23.5t-25.5 -9.5h-220q-37 0 -37 30z" />
    <glyph glyph-name="brevecmb" unicode="&#x306;" horiz-adv-x="0" 
d="M-398 693q57 -57 128 -57q70 0 128 57q10 10 17 10q11 0 11 -14q0 -18 -11 -40q-18 -37 -59 -60t-86 -23q-46 0 -86.5 23t-58.5 60q-12 24 -12 40q0 14 13 14q6 0 16 -10z" />
    <glyph glyph-name="dotaccentcmb" unicode="&#x307;" horiz-adv-x="0" 
d="M-270 570q-24 0 -41 17t-17 40q0 24 17 41t41 17q23 0 40 -17t17 -41q0 -23 -17 -40t-40 -17z" />
    <glyph glyph-name="dieresiscmb" unicode="&#x308;" horiz-adv-x="0" 
d="M-359 571q-23 0 -39.5 16.5t-16.5 39.5t16.5 39.5t39.5 16.5t39 -16.5t16 -39.5t-16 -39.5t-39 -16.5zM-181 571q-23 0 -39.5 16.5t-16.5 39.5t16.5 39.5t39.5 16.5t39 -16.5t16 -39.5t-16.5 -39.5t-38.5 -16.5z" />
    <glyph glyph-name="ringcmb" unicode="&#x30a;" horiz-adv-x="0" 
d="M-271 550q-38 0 -65 26.5t-27 64.5t27 65t65 27t65 -27t27 -65t-27 -64.5t-65 -26.5zM-271 687q-19 0 -32.5 -13.5t-13.5 -32.5t13.5 -32.5t32.5 -13.5t32.5 13.5t13.5 32.5q0 20 -13 33t-33 13z" />
    <glyph glyph-name="hungarumlautcmb" unicode="&#x30b;" horiz-adv-x="0" 
d="M-259 712q0 -14 -16 -32l-100 -112q-7 -10 -19 -10q-19 0 -19 19q0 6 9 21l78 124q14 23 33 23q14 0 24 -9.5t10 -23.5zM-129 712q0 -13 -17 -32l-100 -112q-9 -10 -19 -10q-18 0 -18 19q0 8 8 21l78 124q14 23 33 23q14 0 24.5 -10t10.5 -23z" />
    <glyph glyph-name="caroncmb" unicode="&#x30c;" horiz-adv-x="0" 
d="M-382 691l112 -53l111 53q25 12 35 12q20 0 20 -18q0 -10 -21 -25l-126 -89q-8 -6 -19 -6q-8 0 -20 6l-126 89q-21 15 -21 25q0 18 20 18q10 0 35 -12z" />
    <glyph glyph-name="cedillacmb" unicode="&#x327;" horiz-adv-x="0" 
d="M-306 0h49l-19 -48q18 3 26 3q36 0 61.5 -22t25.5 -53q0 -35 -32 -59t-79 -24q-41 0 -73 18t-32 41q0 9 7 16.5t15 7.5q11 0 18 -8l11 -12q17 -19 51 -19q52 0 52 38q0 35 -45 35q-11 0 -23 -4l-24 -8q-3 -1 -11 -1q-13 0 -13 11q0 4 5 16z" />
    <glyph glyph-name="ogonekcmb" unicode="&#x328;" horiz-adv-x="0" 
d="M-368 -97q0 56 74 97h58l-11 -10q-59 -54 -59 -86q0 -50 61 -50q10 0 27.5 4.5t24.5 4.5q20 0 20 -20q0 -14 -22 -24t-55 -10q-53 0 -85.5 26t-32.5 68z" />
    <glyph glyph-name="soliduslongoverlaycmb" unicode="&#x338;" horiz-adv-x="0" 
d="M-87 629l-286 -733q-13 -33 -27 -74q-9 -25 -27 -25h-32q-15 0 -15 11q0 4 3 9l10 25l12 29l260 665q11 29 34 93l14 39q8 21 29 21h30q13 0 13 -11q0 -5 -9 -27q-5 -12 -9 -22z" />
    <glyph glyph-name="Deltagreek" unicode="&#x394;" horiz-adv-x="667" 
d="M639 0h-612l266 667h79zM333 578l-200 -511h400z" />
    <glyph glyph-name="Deltagreek" unicode="&#x2206;" horiz-adv-x="667" 
d="M639 0h-612l266 667h79zM333 578l-200 -511h400z" />
    <glyph glyph-name="Omegagreek" unicode="&#x3a9;" horiz-adv-x="667" 
d="M290 0h-262v66h179q-179 105 -179 297q0 136 88 228t217 92t217 -92t88 -228q0 -192 -178 -297h178v-66h-261v60q85 49 127 107q58 81 58 187q0 110 -66 186.5t-161 76.5q-99 0 -165 -75t-66 -188q0 -190 186 -294v-60z" />
    <glyph glyph-name="Omegagreek" unicode="&#x2126;" horiz-adv-x="667" 
d="M290 0h-262v66h179q-179 105 -179 297q0 136 88 228t217 92t217 -92t88 -228q0 -192 -178 -297h178v-66h-261v60q85 49 127 107q58 81 58 187q0 110 -66 186.5t-161 76.5q-99 0 -165 -75t-66 -188q0 -190 186 -294v-60z" />
    <glyph glyph-name="pi" unicode="&#x3c0;" horiz-adv-x="581" 
d="M176 0h-74v441h-74v66h526v-66h-74v-441h-73v441h-231v-441z" />
    <glyph glyph-name="endash" unicode="&#x2013;" horiz-adv-x="500" 
d="M33 299v68h434v-68h-434z" />
    <glyph glyph-name="emdash" unicode="&#x2014;" horiz-adv-x="764" 
d="M36 267q0 35 40 35h613q40 0 40 -34q0 -36 -40 -36h-613q-40 0 -40 35z" />
    <glyph glyph-name="quoteleft" unicode="&#x2018;" horiz-adv-x="255" 
d="M115 553q0 -16 19 -17l20 -1q21 -1 36 -19t15 -41q0 -29 -19.5 -47.5t-49.5 -18.5q-35 0 -58 27.5t-23 70.5q0 82 63 164q24 31 40 31q20 0 20 -20q0 -8 -11 -22q-29 -36 -46 -81q-6 -16 -6 -26z" />
    <glyph glyph-name="quoteright" unicode="&#x2019;" horiz-adv-x="256" 
d="M140 558q0 16 -19 17l-20 1q-20 1 -35.5 18.5t-15.5 41.5q0 28 20 47t50 19q34 0 56.5 -27.5t22.5 -70.5q0 -83 -62 -164q-24 -31 -40 -31q-20 0 -20 20q0 7 12 22q19 25 35 58t16 49z" />
    <glyph glyph-name="quotesinglbase" unicode="&#x201a;" horiz-adv-x="256" 
d="M140 -34q0 16 -19 17l-20 1q-20 1 -35.5 19t-15.5 41q0 28 20 47t49 19q35 0 57.5 -27.5t22.5 -70.5q0 -82 -62 -164q-23 -31 -40 -31q-20 0 -20 20q0 7 12 22q26 33 45 81q6 16 6 26z" />
    <glyph glyph-name="quotedblleft" unicode="&#x201c;" horiz-adv-x="437" 
d="M297 553q0 -16 19 -17l20 -1q20 -1 35.5 -19t15.5 -41q0 -28 -20 -47t-50 -19q-35 0 -57.5 27.5t-22.5 70.5q0 80 63 164q23 31 40 31q19 0 19 -20q0 -8 -11 -22q-27 -34 -45 -81q-6 -16 -6 -26zM115 553q0 -16 19 -17l20 -1q21 -1 36.5 -19t15.5 -41q0 -28 -20 -47
t-50 -19q-35 0 -57.5 27.5t-22.5 70.5q0 80 63 164q23 31 40 31q19 0 19 -20q0 -8 -11 -22q-20 -25 -36 -58t-16 -49z" />
    <glyph glyph-name="quotedblright" unicode="&#x201d;" horiz-adv-x="437" 
d="M140 558q0 16 -19 17l-20 1q-20 1 -35.5 18.5t-15.5 41.5q0 28 20 47t50 19q34 0 56.5 -27.5t22.5 -70.5q0 -82 -62 -164q-23 -31 -40 -31q-20 0 -20 20q0 8 11 22q20 25 36 58t16 49zM321 558q0 16 -18 17l-20 1q-21 1 -36.5 18.5t-15.5 41.5q0 28 20 47t50 19
q35 0 57.5 -27.5t22.5 -70.5q0 -81 -63 -164q-24 -31 -40 -31q-19 0 -19 20q0 8 11 22q19 25 35 58t16 49z" />
    <glyph glyph-name="quotedblbase" unicode="&#x201e;" horiz-adv-x="437" 
d="M140 -34q0 16 -19 17l-20 1q-20 1 -35.5 19t-15.5 41q0 28 20 47t49 19q35 0 57.5 -27.5t22.5 -70.5q0 -82 -62 -164q-23 -31 -40 -31q-20 0 -20 20q0 8 11 22q20 25 36 58t16 49zM321 -34q0 16 -18 17l-20 1q-21 1 -36.5 19t-15.5 41q0 28 20 47t50 19q35 0 57.5 -27.5
t22.5 -70.5q0 -80 -63 -164q-23 -31 -40 -31q-19 0 -19 20q0 8 11 22q24 30 45 81q6 15 6 26z" />
    <glyph glyph-name="dagger" unicode="&#x2020;" 
d="M274 -56l22 499l-99 -23q-13 -3 -33 -3q-60 0 -60 44q0 46 61 46q25 0 34 -3l97 -19l-23 109q-3 14 -3 30q0 65 48 65q49 0 49 -65q0 -11 -4 -30l-23 -109l98 19q9 3 34 3q60 0 60 -46q0 -45 -59 -45q-16 0 -33 4l-99 23l25 -552q0 -56 -48 -56q-21 0 -34 15.5t-13 40.5
v3z" />
    <glyph glyph-name="daggerdbl" unicode="&#x2021;" 
d="M279 274q0 91 17 169l-99 -23q-13 -3 -33 -3q-60 0 -60 44q0 46 66 46q14 0 29 -3l97 -19l-23 109q-3 14 -3 30q0 65 48 65q49 0 49 -65q0 -11 -4 -30l-23 -109l98 19q15 3 27 3q67 0 67 -46q0 -45 -59 -45q-16 0 -33 4l-99 23q17 -76 17 -170q0 -93 -17 -181l99 22
q18 4 33 4q59 0 59 -45q0 -46 -65 -46q-14 0 -29 3l-98 19l23 -119q3 -16 3 -31q0 -64 -48 -64t-48 65q0 14 3 30l23 119l-97 -19q-15 -3 -28 -3q-67 0 -67 46q0 45 60 45q15 0 33 -4l99 -22q-17 88 -17 182z" />
    <glyph glyph-name="bullet" unicode="&#x2022;" horiz-adv-x="667" 
d="M196 340q0 58 40.5 99t97.5 41q56 0 96.5 -41t40.5 -99t-40.5 -99t-96.5 -41q-57 0 -97.5 41t-40.5 99z" />
    <glyph glyph-name="ellipsis" unicode="&#x2026;" horiz-adv-x="818" 
d="M136 -17q-26 0 -44 18.5t-18 44.5t18 44.5t44 18.5t44 -18.5t18 -44.5t-18 -44.5t-44 -18.5zM409 -17q-26 0 -44 18.5t-18 44.5t18 44.5t44 18.5t44 -18.5t18 -44.5t-18 -44.5t-44 -18.5zM682 -17q-26 0 -44 18.5t-18 44.5t18 44.5t44 18.5t44 -18.5t18 -44.5t-18 -44.5
t-44 -18.5z" />
    <glyph glyph-name="perthousand" unicode="&#x2030;" horiz-adv-x="1165" 
d="M805 172q0 98 45 155.5t122 57.5q74 0 116 -53t42 -148q0 -92 -44.5 -149t-115.5 -57q-77 0 -121 52t-44 142zM202 15l274 528q-30 -19 -56 -19q-47 0 -72 35q8 -36 8 -73q0 -94 -43.5 -149t-118.5 -55q-72 0 -115.5 55t-43.5 146q0 95 44.5 150.5t120.5 55.5
q40 0 64 -11.5t63 -48.5q50 -48 95 -48q70 0 121 91q16 29 43 29q28 0 28 -15q0 -2 -2 -10l-9 -17l-342 -656q-11 -22 -18 -28q-10 -10 -29 -10q-26 0 -26 17q0 7 6 18zM441 172q0 98 45 155.5t122 57.5q74 0 116 -53t42 -148q0 -92 -44.5 -149t-115.5 -57q-77 0 -121 52
t-44 142zM1062 183q0 145 -90 145q-47 0 -73.5 -40.5t-26.5 -111.5q0 -66 25.5 -103.5t70.5 -37.5q44 0 69 39t25 109zM289 484q0 148 -90 148q-97 0 -97 -150q0 -68 25 -105.5t70 -37.5q92 0 92 145zM699 182q0 146 -90 146q-47 0 -74 -40.5t-27 -111.5q0 -66 25.5 -103.5
t70.5 -37.5q44 0 69.5 39t25.5 108z" />
    <glyph glyph-name="guilsinglleft" unicode="&#x2039;" horiz-adv-x="218" 
d="M171 415l-51 -148l53 -157q3 -9 3 -11q0 -15 -14 -15q-10 0 -16 10l-101 166q-2 2 -2 7q0 3 3 9l99 158q6 10 15 10q13 0 13 -14q0 -9 -2 -15z" />
    <glyph glyph-name="guilsinglright" unicode="&#x203a;" horiz-adv-x="219" 
d="M45 110l53 157l-51 148q-2 6 -2 15q0 14 14 14q8 0 14 -10l99 -158q4 -6 4 -9q0 -4 -3 -7l-101 -166q-6 -10 -16 -10q-14 0 -14 15q0 2 3 11z" />
    <glyph glyph-name="fraction" unicode="&#x2044;" horiz-adv-x="146" 
d="M263 676h42q10 0 10 -6v-2q-1 -1 -1 -2l-415 -667q-6 -9 -15 -9h-45q-8 0 -8 9l2 6l413 661q6 10 17 10z" />
    <glyph glyph-name="Euro" unicode="&#x20ac;" 
d="M179 250q19 -205 183 -205q69 0 110.5 38.5t47.5 110.5q4 46 38 46q41 0 41 -46q0 -92 -66.5 -154t-181.5 -62q-229 0 -261 272l-49 -1q-32 0 -32 29q0 31 30 31h47v17q0 30 1 44l-46 -1q-32 0 -32 29q0 32 30 32h2l52 -2q41 261 262 261q105 0 164 -78q-2 4 -2 22l-1 12
q0 4 -1 6v2q0 34 32 34q34 0 34 -42q0 -18 -4 -53q-4 -34 -4 -52t4 -53q2 -23 2 -31q0 -45 -36 -45q-37 0 -37 48q0 73 -41 117.5t-110 44.5q-155 0 -176 -194l143 1q35 0 35 -29q0 -31 -33 -31h-3l-146 2v-61l147 -1q35 0 35 -29q0 -32 -33 -32h-3z" />
    <glyph glyph-name="trademark" unicode="&#x2122;" horiz-adv-x="904" 
d="M212 364q0 -39 24 -39q2 0 6 1h6q7 2 16 2q21 0 21 -22t-28 -22q-6 0 -8 1l-28 4q-7 1 -35 1q-30 0 -37 -1l-28 -4q-3 -1 -8 -1q-28 0 -28 22t21 22q9 0 15 -2h7q4 -1 6 -1q24 0 24 39v227q0 37 -37 37h-18q-37 0 -37 -37q0 -8 1 -18l2 -21v-14q0 -39 -25 -39
q-24 0 -24 30q0 8 1 25q0 8 1 20q1 9 1 14q0 9 -1.5 27t-1.5 27q0 27 25 27h14q12 -1 22 -1q3 0 46 -2q27 -1 64 -1q34 0 59 1q75 3 73 3q31 0 31 -26q0 1 -2 -22q-3 -35 -3 -38q0 -9 2 -28t2 -28q0 -26 -25 -26t-25 32q0 1 1 9v12l2 22q1 11 1 16q0 36 -41 36h-16
q-34 0 -36 -34l-2 -40v-190zM547 625l83 -273l92 292q8 25 28 25h3q7 0 25 -2.5t28 -2.5q21 0 26 1l20 4h7q29 0 29 -23q0 -21 -21 -21q-8 0 -15 2q-3 0 -6 1h-6q-25 0 -25 -39v-224q0 -39 25 -39q5 0 14 1.5t13 1.5q21 0 21 -22q0 -23 -27 -23q-5 0 -9 1l-28 3q-19 2 -37 2
q-23 0 -50 -4q-13 -2 -20 -2q-24 0 -24 22t26 22h9l14 -2q13 0 17.5 19t5.5 77q0 20 1 54l1 50v96l-103 -317q-8 -24 -35 -24t-35 24l-101 318l3 -258q0 -37 19 -37q8 0 17 1q2 1 7 1q25 0 25 -23t-26 -23q-6 0 -12 1l-26 4q-6 1 -33 1q-28 0 -34 -1l-24 -4q-2 -1 -7 -1
q-30 0 -30 23q0 21 21 21q8 0 16 -2h6q4 -1 6 -1q24 0 24 39v39l1 50v47l-1 50v39q0 39 -25 39h-5q-4 -1 -6 -1q-7 -2 -16 -2q-21 0 -21 21q0 23 29 23h8l19 -3q13 -2 27 -2q18 0 31 3q22 2 25 2q23 0 32 -30z" />
    <glyph glyph-name="partialdiff" unicode="&#x2202;" horiz-adv-x="500" 
d="M215 560q-62 34 -139 45l10 65q87 -12 141 -35q126 -53 190 -178q49 -96 49 -211t-61.5 -186t-161.5 -71q-91 0 -156 66.5t-65 159.5q0 92 60.5 156t147.5 64q48 0 80.5 -16.5t66.5 -57.5q-3 7 -7 17q-30 73 -62 109q-38 43 -93 73zM387 218q0 68 -40 111.5t-103 43.5
q-62 0 -104.5 -47t-42.5 -114q0 -65 42.5 -111t103.5 -46t102.5 47t41.5 116z" />
    <glyph glyph-name="product" unicode="&#x220f;" horiz-adv-x="699" 
d="M37 684v66h626v-66h-79v-868h79v-66h-236v66h82v868h-319v-868h81v-66h-234v66h79v868h-79z" />
    <glyph glyph-name="summation" unicode="&#x2211;" horiz-adv-x="667" 
d="M28 750h570v-227h-66l-7 161h-414l252 -414l-254 -454h425l4 161h70v-227h-580v75l248 445l-248 406v74z" />
    <glyph glyph-name="radical" unicode="&#x221a;" horiz-adv-x="667" 
d="M408 827h259v-66h-196l-215 -761h-91l-82 299h-83v66h143l37 -127q7 -23 14 -64q8 -46 14 -74h6l4 21l39 169z" />
    <glyph glyph-name="infinity" unicode="&#x221e;" horiz-adv-x="667" 
d="M498 186q-93 0 -163 105q-74 -104 -165 -104q-67 0 -109.5 43t-42.5 111q0 67 43 109.5t110 42.5q90 0 161 -104q71 104 165 104q67 0 109 -43t42 -111q0 -67 -42 -110t-108 -43zM488 427q-60 0 -118 -87q58 -88 119 -88q37 0 60.5 25t23.5 63t-24 62.5t-61 24.5z
M179 252q59 0 118 88q-58 87 -119 87q-37 0 -60.5 -25t-23.5 -63t24 -62.5t61 -24.5z" />
    <glyph glyph-name="integral" unicode="&#x222b;" horiz-adv-x="500" 
d="M153 -249q-33 0 -59 10l16 65q26 -10 45 -10q37 0 47 21t10 100l1 613q0 82 4.5 110t21.5 49q34 41 99 41q29 0 68 -11l-16 -65q-26 10 -45 10q-35 0 -45.5 -19t-11.5 -84l-1 -50v-581q0 -77 -3.5 -103.5t-17.5 -46.5q-33 -49 -113 -49z" />
    <glyph glyph-name="approxequal" unicode="&#x2248;" horiz-adv-x="500" 
d="M141 416q-48 0 -88 -72l-43 28q53 115 137 115q39 0 106 -32.5t102 -32.5q51 0 91 67l44 -26q-55 -112 -144 -112q-34 0 -83 22l-56 25q-40 18 -66 18zM141 248q-49 0 -88 -71l-43 28q53 115 137 115q37 0 112 -34q70 -32 96 -32q51 0 91 68l44 -26q-55 -113 -144 -113
q-31 0 -83 23l-56 25q-38 17 -66 17z" />
    <glyph glyph-name="approxequal" unicode="&#x22f2;" horiz-adv-x="500" 
d="M141 416q-48 0 -88 -72l-43 28q53 115 137 115q39 0 106 -32.5t102 -32.5q51 0 91 67l44 -26q-55 -112 -144 -112q-34 0 -83 22l-56 25q-40 18 -66 18zM141 248q-49 0 -88 -71l-43 28q53 115 137 115q37 0 112 -34q70 -32 96 -32q51 0 91 68l44 -26q-55 -113 -144 -113
q-31 0 -83 23l-56 25q-38 17 -66 17z" />
    <glyph glyph-name="notequal" unicode="&#x2260;" horiz-adv-x="500" 
d="M33 444h239l55 112h60l-54 -112h134v-67h-164l-44 -91h208v-67h-239l-54 -113h-61l54 113h-133v67h164l44 91h-209v67z" />
    <glyph glyph-name="lessequal" unicode="&#x2264;" horiz-adv-x="500" 
d="M33 410l434 196v-69l-355 -159l354 -159l1 -69l-434 196v64zM33 120h434v-66h-434v66z" />
    <glyph glyph-name="greaterequal" unicode="&#x2265;" horiz-adv-x="500" 
d="M467 346l-434 -196v69l355 159l-354 159l-1 69l434 -196v-64zM467 54h-434v66h434v-66z" />
    <glyph glyph-name="lozenge" unicode="&#x25ca;" horiz-adv-x="667" 
d="M74 334l259 359l260 -359l-260 -360zM530 334l-197 270l-197 -270l197 -271z" />
    <glyph glyph-name="uniE001" unicode="&#xe001;" horiz-adv-x="0" 
 />
    <glyph glyph-name="uniE003" unicode="&#xe003;" horiz-adv-x="280" 
 />
    <glyph glyph-name="apple" unicode="&#xf8ff;" horiz-adv-x="667" 
d="M332 518q1 73 40.5 118.5t107.5 54.5v-10q0 -65 -44.5 -114t-103.5 -49zM479 528q91 0 144 -71q-80 -62 -80 -140q0 -106 99 -148q-79 -196 -169 -196q-18 0 -40 9l-41 17q-10 4 -33 4q-39 0 -51 -5l-43 -18q-19 -8 -38 -8q-55 0 -111 82q-84 124 -84 252q0 97 52 158.5
t135 61.5q31 0 77 -18q31 -12 48 -12q16 0 43 10q59 22 92 22z" />
    <glyph glyph-name="uniE002" horiz-adv-x="250" 
 />
    </font>
</defs>
</svg>
