<?xml version="1.0" standalone="no"?>
<!DOCTYPE svg PUBLIC "-//W3C//DTD SVG 1.1//EN" "http://www.w3.org/Graphics/SVG/1.1/DTD/svg11.dtd" >
<svg xmlns="http://www.w3.org/2000/svg" xmlns:xlink="http://www.w3.org/1999/xlink" version="1.1">
<metadata>
Created by FontForge 20201107 at Wed Sep 30 13:08:10 2015
 By 
BalboaPlus (c) Copyright, 2015. Parkinson Type Design. 
</metadata>
<defs>
<font id="BalboaPlus-Fill" horiz-adv-x="314" >
  <font-face 
    font-family="BalboaPlus-Fill"
    font-weight="400"
    font-stretch="normal"
    units-per-em="1000"
    panose-1="0 0 0 0 0 0 0 0 0 0"
    ascent="976"
    descent="-24"
    x-height="764"
    cap-height="764"
    bbox="-31 -203 897 933"
    underline-thickness="20"
    underline-position="-133"
    unicode-range="U+0009-FB02"
  />
<missing-glyph horiz-adv-x="1000" 
 />
    <glyph glyph-name=".notdef" horiz-adv-x="1000" 
 />
    <glyph glyph-name=".null" horiz-adv-x="0" 
 />
    <glyph glyph-name="nonmarkingreturn" horiz-adv-x="333" 
 />
    <glyph glyph-name="HT" unicode="&#x9;" horiz-adv-x="1000" 
 />
    <glyph glyph-name="LF" unicode="&#xa;" horiz-adv-x="1000" 
 />
    <glyph glyph-name="CR" unicode="&#xd;" horiz-adv-x="1000" 
 />
    <glyph glyph-name="DLE" horiz-adv-x="1000" 
 />
    <glyph glyph-name="DC1" horiz-adv-x="1000" 
 />
    <glyph glyph-name="DC2" horiz-adv-x="1000" 
 />
    <glyph glyph-name="DC3" horiz-adv-x="445" 
 />
    <glyph glyph-name="DC4" horiz-adv-x="1000" 
 />
    <glyph glyph-name="RS" horiz-adv-x="0" 
 />
    <glyph glyph-name="US" horiz-adv-x="1000" 
 />
    <glyph glyph-name="space" unicode=" " horiz-adv-x="180" 
 />
    <glyph glyph-name="exclam" unicode="!" horiz-adv-x="288" 
d="M169 764v-215l-35 -313h-53l-33 315v213h121zM171 119v-123h-125v123h125z" />
    <glyph glyph-name="quotedbl" unicode="&#x22;" horiz-adv-x="381" 
d="M170 774h99l-11 -211h-79zM42 774h99l-10 -211h-80z" />
    <glyph glyph-name="numbersign" unicode="#" horiz-adv-x="580" 
d="M395 485h66l-19 -90h-65l-13 -55h68l-21 -91h-68l-30 -147h-98l32 147h-34l-31 -147h-98l32 147h-68l19 91h68l13 55h-69l21 90h67l32 147h97l-31 -147h33l32 147h97zM267 339l12 56h-34l-13 -56h35z" />
    <glyph glyph-name="dollar" unicode="$" horiz-adv-x="430" 
d="M324 590q0 -50 -6 -94l-97 11q4 32 4 72q0 45 -8 61.5t-24 16.5q-17 0 -24 -12t-7 -44v-15q0 -64 57 -141q56 -76 80 -133t24 -125v-14q0 -131 -99 -160v-87h-92v86q-48 11 -72 47.5t-24 111.5q0 46 8 102l98 -12q-10 -47 -10 -79q0 -45 7.5 -61t27.5 -16q16 0 22.5 13.5
t6.5 46.5v20q0 43 -14 77.5t-57 94.5q-52 71 -70.5 118.5t-18.5 112.5v12q0 117 96 148v89h92v-87q100 -21 100 -160z" />
    <glyph glyph-name="percent" unicode="%" horiz-adv-x="729" 
d="M640 338v-261q0 -47 -31.5 -69.5t-74.5 -22.5q-45 0 -76.5 23.5t-31.5 72.5v255q0 45 32 68t75 23t75 -22t32 -67zM143 732h363l-248 -736h-92l229 670h-146q2 -8 2 -23v-260q0 -47 -31.5 -69.5t-74.5 -22.5q-45 0 -76.5 23.5t-31.5 72.5v255q0 43 31.5 66.5t74.5 23.5z
M553 84v246q0 23 -20 23q-21 0 -21 -24v-244q0 -25 21 -25q20 0 20 24zM164 389v246q0 23 -20 23q-21 0 -21 -24v-244q0 -25 21 -25q20 0 20 24z" />
    <glyph glyph-name="ampersand" unicode="&#x26;" horiz-adv-x="545" 
d="M448 103v-105q-19 -7 -47 -7q-57 0 -83 36q-41 -43 -125 -43q-73 0 -116 40t-43 112v158q0 58 22 91.5t67 66.5q-18 38 -23.5 64.5t-5.5 72.5v36q0 66 40 109t111 43q65 0 107.5 -36t42.5 -105q0 -55 -8 -93l-106 6q7 40 7 72q0 55 -35 55q-33 0 -33 -43v-17q0 -66 8 -83
l101 -229q3 24 3 66q0 23 -4 51l105 11q6 -44 6 -75q0 -115 -45 -216q18 -40 34 -40q8 0 20 2zM257 124l-84 203q-14 -12 -14 -30v-144q0 -37 9.5 -51.5t34.5 -14.5q28 0 54 37z" />
    <glyph glyph-name="quotesingle" unicode="'" horiz-adv-x="254" 
d="M42 774h99l-10 -211h-80z" />
    <glyph glyph-name="parenleft" unicode="(" horiz-adv-x="389" 
d="M279 -111h-106q-43 80 -80 212t-37 257q0 131 37 259.5t81 205.5h104q-89 -202 -89 -465q0 -272 90 -469z" />
    <glyph glyph-name="parenright" unicode=")" horiz-adv-x="389" 
d="M263 358q0 -125 -37 -258t-80 -211h-106q90 191 90 469q0 266 -89 465h104q44 -74 81 -204t37 -261z" />
    <glyph glyph-name="asterisk" unicode="*" horiz-adv-x="457" 
d="M308 719l45 -127l-89 -10l72 -61l-99 -82l-42 89l-35 -89l-103 78l65 63l-83 16l49 123l67 -44l-16 89h122l-16 -92z" />
    <glyph glyph-name="plus" unicode="+" horiz-adv-x="470" 
d="M364 440v-99h-114v-123h-100v123h-114v99h114v121h100v-121h114z" />
    <glyph glyph-name="comma" unicode="," horiz-adv-x="287" 
d="M171 119v-119q0 -69 -85 -118l-35 32q29 19 43.5 37t16.5 45h-65v123h125z" />
    <glyph glyph-name="hyphen" unicode="-" horiz-adv-x="384" 
d="M268 436v-99h-222v99h222z" />
    <glyph glyph-name="period" unicode="." horiz-adv-x="287" 
d="M171 119v-123h-125v123h125z" />
    <glyph glyph-name="slash" unicode="/" horiz-adv-x="500" 
d="M260 823h133l-222 -934h-134z" />
    <glyph glyph-name="zero" unicode="0" horiz-adv-x="442" 
d="M342 620v-473q0 -163 -153 -163q-159 0 -159 169v465q0 80 42.5 119.5t115.5 39.5q154 0 154 -157zM218 136v492q0 46 -30 46q-17 0 -24.5 -10.5t-7.5 -37.5v-488q0 -28 7 -39.5t25 -11.5q30 0 30 49z" />
    <glyph glyph-name="one" unicode="1" horiz-adv-x="430" 
d="M280 764v-770h-125v582h-119v86q36 1 71.5 10.5t50.5 25.5q22 23 34 66h88z" />
    <glyph glyph-name="two" unicode="2" horiz-adv-x="437" 
d="M343 570q0 -91 -33 -169q-10 -23 -24 -49t-24.5 -43.5t-29 -48t-26.5 -43.5q-33 -55 -44 -115h179v-108h-311v25q0 116 53 218q24 46 82 146q56 95 56 164v41q0 49 -9.5 68t-31.5 19q-23 0 -32 -16t-9 -57q0 -34 6 -72l-100 -9q-8 48 -8 93q0 163 146 163q160 0 160 -207
z" />
    <glyph glyph-name="three" unicode="3" horiz-adv-x="430" 
d="M329 278v-134q0 -75 -40.5 -117.5t-114.5 -42.5q-72 0 -107.5 41.5t-35.5 117.5q0 55 7 97l100 -8q-6 -38 -6 -81q0 -36 9 -50.5t29 -14.5q35 0 35 56v122q0 48 -13 64t-56 16h-14v96h10q43 0 56.5 15t13.5 61v113q0 48 -31 48q-39 0 -39 -54q0 -9 0.5 -18.5t1.5 -20.5
t1 -17l-100 -7q-5 33 -5 70q0 68 40 107.5t107 39.5q70 0 109 -37t39 -114v-112q0 -46 -11.5 -72.5t-39.5 -43.5q55 -26 55 -120z" />
    <glyph glyph-name="four" unicode="4" horiz-adv-x="445" 
d="M357 251v-94h-58v-163h-125v163h-156v76l172 531h108v-513h59zM116 251h58v179z" />
    <glyph glyph-name="five" unicode="5" horiz-adv-x="430" 
d="M330 264q0 -161 -34 -220.5t-128 -59.5q-139 0 -139 164q0 24 3 54l2 29l101 -6q-4 -29 -4 -69q0 -39 8 -54.5t28 -15.5t28.5 13.5t8.5 58.5v165q0 55 -7.5 70.5t-26.5 15.5q-21 0 -32.5 -10t-19.5 -37h-88l21 407q54 -7 123 -7q84 0 136 7q0 -66 -21.5 -86.5
t-87.5 -20.5q-6 0 -48 3l-12 -163q26 9 61 9q69 0 98.5 -61t29.5 -186z" />
    <glyph glyph-name="six" unicode="6" horiz-adv-x="441" 
d="M347 304v-170q0 -71 -43 -110.5t-117 -39.5q-157 0 -157 155v474q0 164 156 164q73 0 109 -38t36 -104q0 -30 -7 -77l-101 8q5 33 5 57q0 54 -38 54q-35 0 -35 -38v-200q31 11 62 11q55 0 92.5 -40t37.5 -106zM222 124v177q0 25 -8 34.5t-26 9.5q-33 0 -33 -42v-177
q0 -39 33 -39q15 0 24.5 10t9.5 27z" />
    <glyph glyph-name="seven" unicode="7" horiz-adv-x="436" 
d="M346 764v-86q-57 -129 -83.5 -213t-44.5 -212q-17 -119 -17 -181q0 -53 3 -78h-137q2 127 20 237q33 201 135 428h-208v105h332z" />
    <glyph glyph-name="eight" unicode="8" horiz-adv-x="433" 
d="M341 263v-118q0 -80 -42.5 -120.5t-111.5 -40.5q-75 0 -119 39t-44 119v125q0 101 64 131q-61 32 -61 137v83q0 82 43.5 120.5t115.5 38.5q69 0 110.5 -39t41.5 -120v-82q0 -58 -13 -90t-44 -48q31 -15 45.5 -44.5t14.5 -90.5zM213 490v143q0 41 -30 41q-31 0 -31 -42
v-141q0 -44 31 -44q30 0 30 43zM217 129v175q0 43 -34 43t-34 -44v-174q0 -42 35 -42q33 0 33 42z" />
    <glyph glyph-name="nine" unicode="9" horiz-adv-x="441" 
d="M341 617v-466q0 -167 -151 -167q-74 0 -111 40t-37 103q0 34 8 82l99 -9q-5 -32 -5 -61q0 -27 9 -39.5t31 -12.5q32 0 32 50v187q-24 -12 -70 -12q-50 0 -86 41.5t-36 114.5v149q0 160 161 160q156 0 156 -160zM216 465v165q0 44 -32 44q-35 0 -35 -42v-167q0 -48 35 -48
q32 0 32 48z" />
    <glyph glyph-name="colon" unicode=":" horiz-adv-x="287" 
d="M171 494v-123h-125v123h125zM171 119v-123h-125v123h125z" />
    <glyph glyph-name="semicolon" unicode=";" horiz-adv-x="287" 
d="M171 494v-123h-125v123h125zM171 119v-119q0 -69 -85 -118l-35 32q29 19 43.5 37t16.5 45h-65v123h125z" />
    <glyph glyph-name="less" unicode="&#x3c;" horiz-adv-x="487" 
d="M371 316v-103l-325 137v81l325 137v-102l-201 -75z" />
    <glyph glyph-name="equal" unicode="=" horiz-adv-x="463" 
d="M347 518v-99h-301v99h301zM347 363v-99h-301v99h301z" />
    <glyph glyph-name="greater" unicode="&#x3e;" horiz-adv-x="487" 
d="M371 432v-81l-325 -137v103l200 75l-200 75v102z" />
    <glyph glyph-name="question" unicode="?" horiz-adv-x="402" 
d="M311 609q0 -88 -56 -166q-22 -30 -33.5 -48t-22 -47t-10.5 -59q0 -21 4 -53h-98q-4 23 -4 46q0 54 13 96.5t47 94.5q37 56 37 110v35q0 32 -7 43.5t-23 11.5q-18 0 -26.5 -17.5t-8.5 -71.5q0 -37 4 -65l-100 -11q-6 46 -6 106q0 164 146 164q70 0 107 -36.5t37 -132.5z
M210 119v-125h-125v125h125z" />
    <glyph glyph-name="at" unicode="@" horiz-adv-x="797" 
d="M684 399q0 -113 -42.5 -180t-124.5 -67q-59 0 -83 33q-24 -30 -78 -30q-44 0 -70 23.5t-26 70.5v45q0 39 26 67t74 60l29 19v48q0 21 -14 21q-15 0 -15 -38q0 -12 4 -38l-84 -7q-5 30 -5 56q0 44 28.5 75t78.5 31q110 0 110 -111v-204q0 -18 6.5 -26.5t25.5 -8.5
q32 0 54 40.5t22 118.5q0 129 -58 209.5t-160 80.5t-176.5 -93.5t-74.5 -219.5t74 -218.5t177 -92.5q56 0 121 41l35 -77q-73 -46 -156 -46q-145 0 -240.5 115t-95.5 278q0 160 99 275.5t237 115.5q137 0 219.5 -101.5t82.5 -264.5zM389 266v76q-26 -21 -26 -46v-36
q0 -22 9 -22q17 0 17 28z" />
    <glyph glyph-name="A" unicode="A" horiz-adv-x="439" 
d="M254 764l102 -768h-134l-10 107h-79l-10 -107h-111l99 768h143zM144 210h55l-24 306z" />
    <glyph glyph-name="B" unicode="B" horiz-adv-x="461" 
d="M371 205q0 -209 -169 -209h-168v768h169q159 0 159 -196q0 -134 -66 -177q75 -39 75 -186zM237 550q0 67 -12 87t-37 20h-21v-215h21q26 0 37.5 22t11.5 86zM242 214q0 123 -63 123h-12v-235h23q28 0 40 25t12 87z" />
    <glyph glyph-name="C" unicode="C" horiz-adv-x="427" 
d="M338 157q0 -98 -39 -135.5t-112 -37.5q-77 0 -119 40.5t-42 122.5v463q0 82 42.5 124.5t116.5 42.5t113 -36.5t39 -132.5q0 -47 -8 -105l-101 8q7 47 7 82q0 50 -10 66t-31 16q-19 0 -27 -10.5t-8 -38.5v-490q0 -27 8.5 -39t30.5 -12q18 0 27.5 18.5t9.5 69.5q0 31 -7 82
l102 8q8 -56 8 -106z" />
    <glyph glyph-name="D" unicode="D" horiz-adv-x="463" 
d="M367 590v-433q0 -88 -42 -124.5t-125 -36.5h-166v768h163q87 0 128.5 -39t41.5 -135zM234 151v453q0 32 -9.5 43t-31.5 11h-26v-556h24q24 0 33.5 11t9.5 38z" />
    <glyph glyph-name="E" unicode="E" horiz-adv-x="393" 
d="M304 102v-106h-270v768h269v-106h-136v-213h113v-108h-113v-235h137z" />
    <glyph glyph-name="F" unicode="F" horiz-adv-x="391" 
d="M303 764v-106h-136v-230h113v-105h-113v-329h-133v770h269z" />
    <glyph glyph-name="G" unicode="G" horiz-adv-x="452" 
d="M355 364v-368h-36l-20 33q-39 -45 -125 -45q-69 0 -108.5 39t-39.5 115v468q0 84 43.5 127.5t119.5 43.5q74 0 111 -37.5t37 -134.5q0 -53 -7 -98l-101 8q6 44 6 76q0 50 -9.5 67t-28.5 17q-22 0 -30 -12t-8 -39v-496q0 -44 37 -44q32 0 32 44v236h127z" />
    <glyph glyph-name="H" unicode="H" horiz-adv-x="478" 
d="M374 764v-770h-132v340h-76v-338h-132v768h132v-322h76v322h132z" />
    <glyph glyph-name="I" unicode="I" horiz-adv-x="271" 
d="M167 764v-768h-133v768h133z" />
    <glyph glyph-name="J" unicode="J" horiz-adv-x="421" 
d="M321 764v-612q0 -88 -39.5 -128t-120.5 -40q-140 0 -140 183q0 51 7 96l101 -9q-6 -42 -6 -82q0 -52 9 -70.5t26 -18.5q30 0 30 35v646h133z" />
    <glyph glyph-name="K" unicode="K" horiz-adv-x="450" 
d="M269 484l118 -490h-138l-63 315l-19 -50v-265h-133v770h133v-227l81 227h127z" />
    <glyph glyph-name="L" unicode="L" horiz-adv-x="395" 
d="M304 103v-109h-270v770h133v-661h137z" />
    <glyph glyph-name="M" unicode="M" horiz-adv-x="575" 
d="M471 764v-770h-128v360l-57 -360h-82l-60 360v-360h-110v770h154l61 -453l72 453h150z" />
    <glyph glyph-name="N" unicode="N" horiz-adv-x="445" 
d="M341 764v-770h-98l-99 395v-395h-110v770h112l85 -341v341h110z" />
    <glyph glyph-name="O" unicode="O" horiz-adv-x="455" 
d="M358 607v-453q0 -89 -45.5 -129.5t-118.5 -40.5q-74 0 -121 41.5t-47 128.5v453q0 88 47 129t121 41t119 -40.5t45 -129.5zM226 128v505q0 21 -10 31.5t-23 10.5q-34 0 -34 -42v-504q0 -42 35 -42q32 0 32 41z" />
    <glyph glyph-name="P" unicode="P" horiz-adv-x="448" 
d="M362 521q0 -250 -165 -250h-30v-275h-133v768h158q88 0 129 -55t41 -188zM232 522q0 77 -12.5 106.5t-38.5 29.5h-14v-281h15q24 0 37 32t13 113z" />
    <glyph glyph-name="Q" unicode="Q" horiz-adv-x="483" 
d="M401 101v-120q-40 1 -61.5 12t-37.5 34q-48 -43 -107 -43q-74 0 -121 41.5t-47 128.5v453q0 88 47 129t121 41t119 -40.5t45 -129.5v-453q0 -28 -10 -42q10 -10 38 -12q9 0 14 1zM226 128v505q0 21 -10 31.5t-23 10.5q-34 0 -34 -42v-504q0 -42 35 -42q32 0 32 41z" />
    <glyph glyph-name="R" unicode="R" horiz-adv-x="454" 
d="M365 -6h-132q-8 19 -10 46q0 13 -3 141q-1 54 -6.5 83.5t-11.5 36.5t-16 7h-19v-314h-133v770h166q164 0 164 -202q0 -88 -14.5 -131t-61.5 -66q64 -41 64 -176v-58q0 -84 13 -137zM234 542q0 69 -12 92.5t-37 23.5h-18v-243h17q25 0 37.5 27.5t12.5 99.5z" />
    <glyph glyph-name="S" unicode="S" horiz-adv-x="416" 
d="M328 175v-15q0 -89 -42.5 -132.5t-118.5 -43.5q-144 0 -144 174q0 52 8 108l100 -12q-7 -51 -7 -85q0 -47 8 -64.5t27 -17.5q34 0 34 64v21q0 46 -17.5 89t-63.5 99q-49 59 -70 111t-21 118v12q0 176 153 176q78 0 110.5 -45t32.5 -129q0 -43 -7 -95l-101 12q5 43 5 72
q0 48 -7 65.5t-24 17.5q-16 0 -22.5 -13t-6.5 -47v-16q0 -67 64 -149q110 -142 110 -275z" />
    <glyph glyph-name="T" unicode="T" horiz-adv-x="446" 
d="M359 764v-106h-105v-664h-133v664h-104v106h342z" />
    <glyph glyph-name="U" unicode="U" horiz-adv-x="457" 
d="M357 764v-619q0 -78 -44 -119.5t-120 -41.5q-77 0 -120 41t-43 119v620h132v-633q0 -44 38 -44q30 0 30 45v632h127z" />
    <glyph glyph-name="V" unicode="V" horiz-adv-x="440" 
d="M239 764h122l-94 -770h-158l-96 770h137l42 -502z" />
    <glyph glyph-name="W" unicode="W" horiz-adv-x="600" 
d="M388 764h134l-93 -770h-121l-42 391l-43 -391h-120l-90 770h134l32 -408l41 408h92l43 -417z" />
    <glyph glyph-name="X" unicode="X" horiz-adv-x="444" 
d="M262 387l121 -393h-148l-45 252l-51 -251h-124l111 388l-111 381h139l42 -210l49 210h124z" />
    <glyph glyph-name="Y" unicode="Y" horiz-adv-x="453" 
d="M245 764h125l-112 -471v-299h-133v300l-112 470h140l44 -291z" />
    <glyph glyph-name="Z" unicode="Z" horiz-adv-x="410" 
d="M319 102v-106h-298v91l163 572h-148v105h283v-91l-156 -571h156z" />
    <glyph glyph-name="bracketleft" unicode="[" horiz-adv-x="357" 
d="M257 -55v-55h-201v932h201v-55h-68v-822h68z" />
    <glyph glyph-name="backslash" unicode="\" horiz-adv-x="476" 
d="M156 823l223 -934h-130l-222 934h129z" />
    <glyph glyph-name="bracketright" unicode="]" horiz-adv-x="357" 
d="M231 822v-932h-201v55h68v822h-68v55h201z" />
    <glyph glyph-name="asciicircum" unicode="^" horiz-adv-x="588" 
d="M330 764l144 -371h-123l-93 251l-92 -251h-123l141 371h146z" />
    <glyph glyph-name="underscore" unicode="_" horiz-adv-x="352" 
d="M362 -153v-35h-372v35h372z" />
    <glyph glyph-name="grave" unicode="`" horiz-adv-x="480" 
d="M230 888l66 -104h-109l-80 104h123z" />
    <glyph glyph-name="a" unicode="a" horiz-adv-x="439" 
d="M254 764l102 -768h-134l-10 107h-79l-10 -107h-111l99 768h143zM144 210h55l-24 306z" />
    <glyph glyph-name="b" unicode="b" horiz-adv-x="461" 
d="M371 205q0 -209 -169 -209h-168v768h169q159 0 159 -196q0 -134 -66 -177q75 -39 75 -186zM237 550q0 67 -12 87t-37 20h-21v-215h21q26 0 37.5 22t11.5 86zM242 214q0 123 -63 123h-12v-235h23q28 0 40 25t12 87z" />
    <glyph glyph-name="c" unicode="c" horiz-adv-x="427" 
d="M338 157q0 -98 -39 -135.5t-112 -37.5q-77 0 -119 40.5t-42 122.5v463q0 82 42.5 124.5t116.5 42.5t113 -36.5t39 -132.5q0 -47 -8 -105l-101 8q7 47 7 82q0 50 -10 66t-31 16q-19 0 -27 -10.5t-8 -38.5v-490q0 -27 8.5 -39t30.5 -12q18 0 27.5 18.5t9.5 69.5q0 31 -7 82
l102 8q8 -56 8 -106z" />
    <glyph glyph-name="d" unicode="d" horiz-adv-x="463" 
d="M367 590v-433q0 -88 -42 -124.5t-125 -36.5h-166v768h163q87 0 128.5 -39t41.5 -135zM234 151v453q0 32 -9.5 43t-31.5 11h-26v-556h24q24 0 33.5 11t9.5 38z" />
    <glyph glyph-name="e" unicode="e" horiz-adv-x="393" 
d="M304 102v-106h-270v768h269v-106h-136v-213h113v-108h-113v-235h137z" />
    <glyph glyph-name="f" unicode="f" horiz-adv-x="391" 
d="M303 764v-106h-136v-230h113v-105h-113v-329h-133v770h269z" />
    <glyph glyph-name="g" unicode="g" horiz-adv-x="452" 
d="M355 364v-368h-36l-20 33q-39 -45 -125 -45q-69 0 -108.5 39t-39.5 115v468q0 84 43.5 127.5t119.5 43.5q74 0 111 -37.5t37 -134.5q0 -53 -7 -98l-101 8q6 44 6 76q0 50 -9.5 67t-28.5 17q-22 0 -30 -12t-8 -39v-496q0 -44 37 -44q32 0 32 44v236h127z" />
    <glyph glyph-name="h" unicode="h" horiz-adv-x="478" 
d="M374 764v-770h-132v340h-76v-338h-132v768h132v-322h76v322h132z" />
    <glyph glyph-name="i" unicode="i" horiz-adv-x="271" 
d="M167 764v-770h-133v770h133z" />
    <glyph glyph-name="j" unicode="j" horiz-adv-x="421" 
d="M321 764v-612q0 -88 -39.5 -128t-120.5 -40q-140 0 -140 183q0 51 7 96l101 -9q-6 -42 -6 -82q0 -52 9 -70.5t26 -18.5q30 0 30 35v646h133z" />
    <glyph glyph-name="k" unicode="k" horiz-adv-x="450" 
d="M269 484l118 -490h-138l-63 315l-19 -50v-265h-133v770h133v-227l81 227h127z" />
    <glyph glyph-name="l" unicode="l" horiz-adv-x="395" 
d="M304 103v-109h-270v770h133v-661h137z" />
    <glyph glyph-name="m" unicode="m" horiz-adv-x="575" 
d="M471 764v-770h-128v360l-57 -360h-82l-60 360v-360h-110v770h154l61 -453l72 453h150z" />
    <glyph glyph-name="n" unicode="n" horiz-adv-x="445" 
d="M341 764v-770h-98l-99 395v-395h-110v770h112l85 -341v341h110z" />
    <glyph glyph-name="o" unicode="o" horiz-adv-x="455" 
d="M358 607v-453q0 -89 -45.5 -129.5t-118.5 -40.5q-74 0 -121 41.5t-47 128.5v453q0 88 47 129t121 41t119 -40.5t45 -129.5zM226 128v505q0 21 -10 31.5t-23 10.5q-34 0 -34 -42v-504q0 -42 35 -42q32 0 32 41z" />
    <glyph glyph-name="p" unicode="p" horiz-adv-x="448" 
d="M362 521q0 -250 -165 -250h-30v-275h-133v768h158q88 0 129 -55t41 -188zM232 522q0 77 -12.5 106.5t-38.5 29.5h-14v-281h15q24 0 37 32t13 113z" />
    <glyph glyph-name="q" unicode="q" horiz-adv-x="483" 
d="M401 101v-120q-40 1 -61.5 12t-37.5 34q-48 -43 -107 -43q-74 0 -121 41.5t-47 128.5v453q0 88 47 129t121 41t119 -40.5t45 -129.5v-453q0 -28 -10 -42q10 -10 38 -12q9 0 14 1zM226 128v505q0 21 -10 31.5t-23 10.5q-34 0 -34 -42v-504q0 -42 35 -42q32 0 32 41z" />
    <glyph glyph-name="r" unicode="r" horiz-adv-x="454" 
d="M365 -6h-132q-8 19 -10 46q0 13 -3 141q-1 54 -6.5 83.5t-11.5 36.5t-16 7h-19v-314h-133v770h166q164 0 164 -202q0 -88 -14.5 -131t-61.5 -66q64 -41 64 -176v-58q0 -84 13 -137zM234 542q0 69 -12 92.5t-37 23.5h-18v-243h17q25 0 37.5 27.5t12.5 99.5z" />
    <glyph glyph-name="s" unicode="s" horiz-adv-x="416" 
d="M328 175v-15q0 -89 -42.5 -132.5t-118.5 -43.5q-144 0 -144 174q0 52 8 108l100 -12q-7 -51 -7 -85q0 -47 8 -64.5t27 -17.5q34 0 34 64v21q0 46 -17.5 89t-63.5 99q-49 59 -70 111t-21 118v12q0 176 153 176q78 0 110.5 -45t32.5 -129q0 -43 -7 -95l-101 12q5 43 5 72
q0 48 -7 65.5t-24 17.5q-16 0 -22.5 -13t-6.5 -47v-16q0 -67 64 -149q110 -142 110 -275z" />
    <glyph glyph-name="t" unicode="t" horiz-adv-x="446" 
d="M359 764v-106h-105v-664h-133v664h-104v106h342z" />
    <glyph glyph-name="u" unicode="u" horiz-adv-x="457" 
d="M357 764v-619q0 -78 -44 -119.5t-120 -41.5q-77 0 -120 41t-43 119v620h132v-633q0 -44 38 -44q30 0 30 45v632h127z" />
    <glyph glyph-name="v" unicode="v" horiz-adv-x="440" 
d="M239 764h122l-94 -770h-158l-96 770h137l42 -502z" />
    <glyph glyph-name="w" unicode="w" horiz-adv-x="600" 
d="M388 764h134l-93 -770h-121l-42 391l-43 -391h-120l-90 770h134l32 -408l41 408h92l43 -417z" />
    <glyph glyph-name="x" unicode="x" horiz-adv-x="444" 
d="M262 387l121 -393h-148l-45 252l-51 -251h-124l111 388l-111 381h139l42 -210l49 210h124z" />
    <glyph glyph-name="y" unicode="y" horiz-adv-x="453" 
d="M245 764h125l-112 -471v-299h-133v300l-112 470h140l44 -291z" />
    <glyph glyph-name="z" unicode="z" horiz-adv-x="410" 
d="M319 102v-106h-298v91l163 572h-148v105h283v-91l-156 -571h156z" />
    <glyph glyph-name="braceleft" unicode="{" horiz-adv-x="385" 
d="M279 -65v-46q-37 3 -65.5 9.5t-56.5 21t-43 42.5t-15 67v214q0 44 -10.5 62t-42.5 27v39q31 10 42 34t11 69v205q0 39 18.5 68t47.5 44.5t57.5 23t56.5 8.5v-51q-27 -9 -37 -27.5t-10 -59.5v-183q0 -104 -78 -149q78 -24 78 -139v-193q0 -41 10 -59t37 -27z" />
    <glyph glyph-name="bar" unicode="|" horiz-adv-x="316" 
d="M189 822v-932h-133v932h133z" />
    <glyph glyph-name="braceright" unicode="}" horiz-adv-x="385" 
d="M269 371v-39q-32 -9 -42.5 -27t-10.5 -62v-214q0 -62 -43 -95t-137 -46v47q27 9 37 27t10 59v193q0 107 80 141q-30 13 -55 48.5t-25 98.5v183q0 41 -10 59.5t-37 27.5v51q180 -9 180 -144v-205q0 -45 11 -69t42 -34z" />
    <glyph glyph-name="asciitilde" unicode="~" horiz-adv-x="588" 
d="M393 479h58q0 -70 -31.5 -113t-79.5 -43q-8 0 -16.5 0.5t-17.5 3t-15.5 4t-17 5t-15.5 5.5t-16 7t-14.5 7t-16 8t-14.5 7q-22 11 -39 11q-16 0 -28.5 -15.5t-17.5 -41.5h-60q4 65 37.5 110t74.5 45q51 0 145 -49q17 -9 34 -9t31.5 16t18.5 42z" />
    <glyph glyph-name="DEL" horiz-adv-x="0" 
 />
    <glyph glyph-name="uni00A0" unicode="&#xa0;" horiz-adv-x="90" 
 />
    <glyph glyph-name="exclamdown" unicode="&#xa1;" horiz-adv-x="287" 
d="M171 764v-123h-125v123h125zM169 209v-213h-121v215l35 313h53z" />
    <glyph glyph-name="cent" unicode="&#xa2;" horiz-adv-x="432" 
d="M328 519q0 -24 -6 -75l-97 5q3 25 3 60q0 58 -32 58q-19 0 -26.5 -11t-7.5 -39v-271q0 -25 7.5 -34t25.5 -9q19 0 26 13.5t7 48.5q0 23 -5 55l97 6q6 -32 6 -76q0 -68 -23 -100t-66 -43v-113h-92v112q-109 25 -109 151v255q0 123 109 151v101h92v-104q91 -25 91 -141z
" />
    <glyph glyph-name="sterling" unicode="&#xa3;" horiz-adv-x="476" 
d="M370 605q0 -47 -8 -103l-101 8q7 44 7 77q0 54 -7 69.5t-24 15.5q-30 0 -30 -39v-246h115v-98h-115v-39q0 -87 -29 -135q39 7 88 7q44 0 98 -12v-119q-76 13 -152 13q-89 0 -176 -12v105l12 2q12 2 19.5 11.5t13 43.5t5.5 95v40h-50v98h50v239q0 78 39 114.5t107 36.5
q72 0 105 -43t33 -129z" />
    <glyph glyph-name="currency" unicode="&#xa4;" horiz-adv-x="440" 
d="M356 155q0 -90 -36 -130.5t-105 -40.5q-77 0 -120.5 39.5t-43.5 121.5v150h-44l16 79h28v21h-43l15 75h28v140q0 81 43 124t118 43q143 0 143 -172q0 -58 -8 -108l-101 8q7 54 7 85q0 51 -8 68t-26 17q-19 0 -27 -10.5t-8 -38.5v-156h128l-16 -75h-112v-21h127l-16 -79
h-111v-161q0 -29 6 -39.5t27 -10.5q36 0 36 89q0 27 -7 83l102 7q8 -52 8 -108z" />
    <glyph glyph-name="yen" unicode="&#xa5;" horiz-adv-x="499" 
d="M268 764h124l-108 -448h104v-85h-106v-56h106v-85h-106v-96h-134v96h-104v85h104v56h-104v85h103l-110 448h139l45 -286z" />
    <glyph glyph-name="brokenbar" unicode="&#xa6;" horiz-adv-x="315" 
d="M189 823v-398h-133v398h133zM189 287v-396h-133v396h133z" />
    <glyph glyph-name="section" unicode="&#xa7;" 
d="M188 540v-298h-132v298h132z" />
    <glyph glyph-name="dieresis" unicode="&#xa8;" horiz-adv-x="480" 
d="M327 888v-97h-98v97h98zM184 888v-97h-100v97h100z" />
    <glyph glyph-name="copyright" unicode="&#xa9;" horiz-adv-x="778" 
d="M738 380q0 -143 -101 -248.5t-255 -105.5q-152 0 -247 101t-95 253q0 148 102.5 251t244.5 103q146 0 248.5 -105t102.5 -249zM704 380q0 124 -95 221t-222 97q-129 0 -218.5 -91.5t-89.5 -226.5q0 -142 86 -231.5t217 -89.5q135 0 228.5 96t93.5 225zM490 270
q0 -101 -101 -101q-49 0 -80.5 25.5t-31.5 77.5v229q0 53 31.5 78t80.5 25q101 0 101 -101q0 -24 -2 -48l-71 4q2 16 2 35q0 44 -27 44q-26 0 -26 -31v-240q0 -32 26 -32q13 0 20 9.5t7 35.5q0 17 -2 35l71 4q2 -22 2 -49z" />
    <glyph glyph-name="ordfeminine" unicode="&#xaa;" 
d="M188 540v-298h-132v298h132z" />
    <glyph glyph-name="guillemotleft" unicode="&#xab;" horiz-adv-x="599" 
d="M355 392l121 -216h-122l-120 213v8l121 212h121zM157 392l121 -216h-122l-120 213v8l121 212h121z" />
    <glyph glyph-name="logicalnot" unicode="&#xac;" 
d="M188 540v-298h-132v298h132z" />
    <glyph glyph-name="registered" unicode="&#xae;" horiz-adv-x="527" 
d="M483 550q0 -90 -63.5 -157t-160.5 -67q-96 0 -155.5 63.5t-59.5 160.5q0 93 64 156.5t154 63.5q92 0 156.5 -65t64.5 -155zM450 550q0 74 -56 131.5t-132 57.5q-77 0 -129.5 -54.5t-52.5 -134.5q0 -84 50.5 -137.5t128.5 -53.5q80 0 135.5 57t55.5 134zM348 417h-58
q0 2 -1 5.5t-1 5.5q-2 12 -2 31.5v24.5q-1 14 -1.5 20t-5.5 13t-14 7h-10v-107h-56v274h82q28 0 44.5 -21.5t16.5 -49.5q0 -59 -40 -72v-2q40 -12 40 -60q0 -40 3 -56q1 -2 2 -6t1 -7zM287 611q0 37 -21 37h-11v-79h11q21 0 21 42z" />
    <glyph glyph-name="macron" unicode="&#xaf;" horiz-adv-x="480" 
d="M339 888v-75h-266v75h266z" />
    <glyph glyph-name="degree" unicode="&#xb0;" 
d="M188 540v-298h-132v298h132z" />
    <glyph glyph-name="plusminus" unicode="&#xb1;" 
d="M188 540v-298h-132v298h132z" />
    <glyph glyph-name="twosuperior" unicode="&#xb2;" horiz-adv-x="317" 
d="M232 657q0 -54 -18 -94q-9 -21 -30 -53l-32 -49q-13 -22 -19 -33q-6 -10 -9 -21h107v-69h-194v16q0 53 35 121q10 20 46 80q33 54 33 89v23q0 45 -20 45q-18 0 -18 -38q0 -20 4 -43l-72 -4q-5 25 -5 54q0 46 25 69t67 23q47 0 73.5 -29.5t26.5 -86.5z" />
    <glyph glyph-name="threesuperior" unicode="&#xb3;" horiz-adv-x="317" 
d="M223 494v-74q0 -45 -27 -68t-70 -23q-42 0 -65.5 23.5t-23.5 66.5q0 38 3 56l69 -4q-3 -36 -3 -48q0 -18 3.5 -22.5t14.5 -4.5q10 0 13.5 4t3.5 18v67q0 25 -6.5 33.5t-29.5 8.5h-10v58h8q23 0 29.5 7.5t6.5 31.5v61q0 23 -14 23q-10 0 -14.5 -7.5t-4.5 -32.5
q0 -15 4 -41l-70 -3q-4 26 -4 54q0 45 25.5 68.5t66.5 23.5q92 0 92 -85v-62q0 -48 -19 -65q22 -12 22 -64z" />
    <glyph glyph-name="acute" unicode="&#xb4;" horiz-adv-x="480" 
d="M193 889h124l-110 -104h-110z" />
    <glyph glyph-name="mu" unicode="&#xb5;" 
d="M188 540v-298h-132v298h132z" />
    <glyph glyph-name="paragraph" unicode="&#xb6;" horiz-adv-x="796" 
d="M659 102v-106h-310q-49 0 -98.5 25t-91 71.5t-67.5 122.5t-26 169q0 91 26 166t68.5 120.5t91 69.5t97.5 24h309v-106h-56v-556h57zM424 102h45v556h-45v-556z" />
    <glyph glyph-name="periodcentered" unicode="&#xb7;" horiz-adv-x="268" 
d="M161 450v-123h-125v123h125z" />
    <glyph glyph-name="cedilla" unicode="&#xb8;" 
d="M188 540v-298h-132v298h132z" />
    <glyph glyph-name="onesuperior" unicode="&#xb9;" horiz-adv-x="317" 
d="M176 766v-427h-83v319h-65v52q52 2 68 19q12 12 19 37h61z" />
    <glyph glyph-name="ordmasculine" unicode="&#xba;" 
d="M188 540v-298h-132v298h132z" />
    <glyph glyph-name="guillemotright" unicode="&#xbb;" horiz-adv-x="586" 
d="M480 397v-8l-120 -213h-121l121 216l-121 217h120zM282 397v-8l-120 -213h-122l121 216l-121 217h121z" />
    <glyph glyph-name="onequarter" unicode="&#xbc;" horiz-adv-x="654" 
d="M399 766h81l-260 -771h-84zM565 142v-62h-33v-85h-81v85h-115v57l117 287h80v-282h32zM182 765v-427h-82v319h-66v52q52 2 68 19q12 12 19 37h61zM421 142h30v82z" />
    <glyph glyph-name="onehalf" unicode="&#xbd;" horiz-adv-x="654" 
d="M577 316q0 -54 -18 -94q-9 -21 -28 -49q-4 -6 -14.5 -21t-16.5 -24q-24 -42 -30 -62h106v-69h-195v16q0 51 36 121q10 20 46 80q32 53 32 89v23q0 27 -4.5 36t-14.5 9q-18 0 -18 -38q0 -20 4 -43l-72 -4q-6 30 -6 54q0 45 25.5 68.5t67.5 23.5q47 0 73.5 -29.5
t26.5 -86.5zM375 766h81l-260 -770h-84zM174 765v-427h-83v319h-65v52q52 2 68 19q12 12 19 37h61z" />
    <glyph glyph-name="threequarters" unicode="&#xbe;" horiz-adv-x="654" 
d="M399 766h81l-260 -770h-84zM219 494v-74q0 -45 -27 -68t-70 -23q-42 0 -65.5 23.5t-23.5 66.5q0 32 4 56l69 -4l-4 -48q0 -18 3.5 -22.5t14.5 -4.5q10 0 13.5 4t3.5 18v67q0 25 -6.5 33.5t-29.5 8.5h-10v58h8q23 0 29.5 7.5t6.5 31.5v61q0 23 -14 23q-10 0 -14.5 -7.5
t-4.5 -32.5q0 -15 4 -41l-69 -3q-5 32 -5 54q0 45 25.5 68.5t66.5 23.5q92 0 92 -85v-62q0 -48 -19 -65q22 -12 22 -64zM570 142v-62h-33v-85h-81v85h-115v57l117 287h80v-282h32zM425 142h31v82z" />
    <glyph glyph-name="questiondown" unicode="&#xbf;" horiz-adv-x="402" 
d="M248 764v-123h-125v123h125zM311 148q0 -164 -146 -164q-70 0 -107 36.5t-37 132.5q0 88 56 166q22 30 33.5 48t22 47t10.5 59q0 21 -4 53h98q4 -23 4 -46q0 -54 -13 -96.5t-47 -94.5q-37 -56 -37 -110v-35q0 -32 7 -43.5t23 -11.5q18 0 26.5 17.5t8.5 71.5q0 37 -4 65
l100 11q6 -46 6 -106z" />
    <glyph glyph-name="Agrave" unicode="&#xc0;" horiz-adv-x="439" 
d="M171 888l66 -104h-109l-80 104h123zM254 764l102 -768h-134l-10 107h-79l-10 -107h-111l99 768h143zM144 210h55l-24 306z" />
    <glyph glyph-name="Aacute" unicode="&#xc1;" horiz-adv-x="439" 
d="M212 890h124l-110 -104h-110zM254 764l102 -768h-134l-10 107h-79l-10 -107h-111l99 768h143zM144 210h55l-24 306z" />
    <glyph glyph-name="Acircumflex" unicode="&#xc2;" horiz-adv-x="439" 
d="M218 888l77 -104h-92l-32 41l-28 -41h-87l77 104h85zM254 764l102 -768h-134l-10 107h-79l-10 -107h-111l99 768h143zM144 210h55l-24 306z" />
    <glyph glyph-name="Atilde" unicode="&#xc3;" horiz-adv-x="439" 
d="M251 892h64q-14 -109 -87 -109q-14 0 -40 11q-5 2 -15 6.5t-15 6.5q-17 7 -29 7q-17 0 -22 -30h-65q5 50 27.5 79t59.5 29q16 0 39 -10l29 -13q18 -8 28 -8q11 0 16.5 7t9.5 24zM254 764l102 -768h-134l-10 107h-79l-10 -107h-111l99 768h143zM144 210h55l-24 306z" />
    <glyph glyph-name="Adieresis" unicode="&#xc4;" horiz-adv-x="439" 
d="M293 888v-97h-98v97h98zM150 888v-97h-100v97h100zM254 764l102 -768h-134l-10 107h-79l-10 -107h-111l99 768h143zM144 210h55l-24 306z" />
    <glyph glyph-name="Aring" unicode="&#xc5;" horiz-adv-x="439" 
d="M265 850q0 -35 -25 -59.5t-60 -24.5q-36 0 -61 24t-25 60t25 59.5t61 23.5t60.5 -23.5t24.5 -59.5zM254 764l102 -768h-134l-10 107h-79l-10 -107h-111l99 768h143zM144 210h55l-24 306z" />
    <glyph glyph-name="AE" unicode="&#xc6;" horiz-adv-x="613" 
d="M525 102v-106h-270v106h-98l-20 -106h-125l180 768h332v-106h-136v-213h113v-108h-113v-235h137zM255 210l1 368l-78 -368h77z" />
    <glyph glyph-name="Ccedilla" unicode="&#xc7;" horiz-adv-x="427" 
d="M338 157q0 -92 -34.5 -130.5t-98.5 -42.5l-6 -17q104 -7 104 -79q0 -44 -44 -67t-120 -24l-5 44q88 7 88 47q0 30 -69 24l-15 14l21 60q-133 16 -133 161v463q0 82 42.5 124.5t116.5 42.5q73 0 112.5 -37.5t39.5 -134.5q0 -52 -8 -102l-101 8q7 51 7 79q0 51 -9 68
t-29 17t-29 -10.5t-9 -38.5v-490q0 -27 8.5 -39t30.5 -12q18 0 27.5 18.5t9.5 69.5q0 25 -7 83l102 7q8 -52 8 -106z" />
    <glyph glyph-name="Egrave" unicode="&#xc8;" horiz-adv-x="393" 
d="M170 888l66 -104h-109l-80 104h123zM304 102v-106h-270v768h269v-106h-136v-213h113v-108h-113v-235h137z" />
    <glyph glyph-name="Eacute" unicode="&#xc9;" horiz-adv-x="393" 
d="M219 888h124l-110 -104h-110zM304 102v-106h-270v768h269v-106h-136v-213h113v-108h-113v-235h137z" />
    <glyph glyph-name="Ecircumflex" unicode="&#xca;" horiz-adv-x="393" 
d="M212 888l77 -104h-92l-32 41l-28 -41h-87l77 104h85zM304 102v-106h-270v768h269v-106h-136v-213h113v-108h-113v-235h137z" />
    <glyph glyph-name="Edieresis" unicode="&#xcb;" horiz-adv-x="393" 
d="M288 888v-97h-98v97h98zM145 888v-97h-100v97h100zM304 102v-106h-270v768h269v-106h-136v-213h113v-108h-113v-235h137z" />
    <glyph glyph-name="Igrave" unicode="&#xcc;" horiz-adv-x="271" 
d="M92 888l66 -104h-109l-80 104h123zM167 764v-770h-133v770h133z" />
    <glyph glyph-name="Iacute" unicode="&#xcd;" horiz-adv-x="271" 
d="M130 888h124l-110 -104h-110zM167 764v-770h-133v770h133z" />
    <glyph glyph-name="Icircumflex" unicode="&#xce;" horiz-adv-x="271" 
d="M146 888l77 -104h-92l-32 41l-28 -41h-87l77 104h85zM167 764v-770h-133v770h133z" />
    <glyph glyph-name="Idieresis" unicode="&#xcf;" horiz-adv-x="271" 
d="M213 888v-97h-98v97h98zM70 888v-97h-100v97h100zM167 764v-770h-133v770h133z" />
    <glyph glyph-name="Eth" unicode="&#xd0;" horiz-adv-x="489" 
d="M393 590v-433q0 -88 -42 -124.5t-125 -36.5h-166v353h-44v92h44v323h163q87 0 128.5 -39t41.5 -135zM260 151v453q0 32 -9.5 43t-31.5 11h-26v-217h38v-92h-38v-247h24q24 0 33.5 11t9.5 38z" />
    <glyph glyph-name="Ntilde" unicode="&#xd1;" horiz-adv-x="445" 
d="M255 892h64q-14 -109 -87 -109q-14 0 -40 11q-5 2 -15 6.5t-15 6.5q-18 7 -29 7q-17 0 -22 -30h-65q5 50 27.5 79t59.5 29q16 0 39 -10l29 -13q18 -8 28 -8q11 0 16.5 7t9.5 24zM341 764v-770h-98l-99 395v-395h-110v770h112l85 -341v341h110z" />
    <glyph glyph-name="Ograve" unicode="&#xd2;" horiz-adv-x="455" 
d="M193 888l66 -104h-109l-80 104h123zM358 607v-453q0 -89 -45.5 -129.5t-118.5 -40.5q-74 0 -121 41.5t-47 128.5v453q0 88 47 129t121 41t119 -40.5t45 -129.5zM226 128v505q0 21 -10 31.5t-23 10.5q-34 0 -34 -42v-504q0 -42 35 -42q32 0 32 41z" />
    <glyph glyph-name="Oacute" unicode="&#xd3;" horiz-adv-x="455" 
d="M234 890h124l-110 -104h-110zM358 607v-453q0 -89 -45.5 -129.5t-118.5 -40.5q-74 0 -121 41.5t-47 128.5v453q0 88 47 129t121 41t119 -40.5t45 -129.5zM226 128v505q0 21 -10 31.5t-23 10.5q-34 0 -34 -42v-504q0 -42 35 -42q32 0 32 41z" />
    <glyph glyph-name="Ocircumflex" unicode="&#xd4;" horiz-adv-x="455" 
d="M241 888l77 -104h-92l-30 43l-30 -43h-87l77 104h85zM358 607v-453q0 -89 -45.5 -129.5t-118.5 -40.5q-74 0 -121 41.5t-47 128.5v453q0 88 47 129t121 41t119 -40.5t45 -129.5zM226 128v505q0 21 -10 31.5t-23 10.5q-34 0 -34 -42v-504q0 -42 35 -42q32 0 32 41z" />
    <glyph glyph-name="Otilde" unicode="&#xd5;" horiz-adv-x="455" 
d="M265 892h63q-14 -109 -86 -109q-15 0 -41 11q-5 2 -15 6.5t-15 6.5q-18 7 -28 7q-17 0 -22 -30h-65q5 50 27.5 79t59.5 29q16 0 39 -10l29 -13q18 -8 28 -8q11 0 16.5 7t9.5 24zM358 607v-453q0 -89 -45.5 -129.5t-118.5 -40.5q-74 0 -121 41.5t-47 128.5v453
q0 88 47 129t121 41t119 -40.5t45 -129.5zM226 128v505q0 21 -10 31.5t-23 10.5q-34 0 -34 -42v-504q0 -42 35 -42q32 0 32 41z" />
    <glyph glyph-name="Odieresis" unicode="&#xd6;" horiz-adv-x="455" 
d="M314 888v-97h-98v97h98zM171 888v-97h-100v97h100zM358 607v-453q0 -89 -45.5 -129.5t-118.5 -40.5q-74 0 -121 41.5t-47 128.5v453q0 88 47 129t121 41t119 -40.5t45 -129.5zM226 128v505q0 21 -10 31.5t-23 10.5q-34 0 -34 -42v-504q0 -42 35 -42q32 0 32 41z" />
    <glyph glyph-name="multiply" unicode="&#xd7;" horiz-adv-x="465" 
d="M270 391l86 -87l-70 -72l-87 88l-81 -80l-69 69l80 81l-85 85l70 72l86 -86l80 81l71 -71z" />
    <glyph glyph-name="Oslash" unicode="&#xd8;" horiz-adv-x="459" 
d="M309 841l87 -31l-47 -130q6 -18 7 -23q4 -22 4 -50v-453q0 -89 -45.5 -129.5t-119.5 -40.5q-51 0 -85 17l-24 -70l-89 31l42 117q-12 36 -12 75v453q0 88 46.5 129t121.5 41q48 0 86 -18zM160 426l67 181v26q0 21 -10 31.5t-23 10.5q-34 0 -34 -42v-207zM227 128v201
l-67 -185v-15q0 -42 35 -42q32 0 32 41z" />
    <glyph glyph-name="Ugrave" unicode="&#xd9;" horiz-adv-x="457" 
d="M188 888l66 -104h-109l-80 104h123zM357 764v-619q0 -78 -44 -119.5t-120 -41.5q-77 0 -120 41t-43 119v620h132v-633q0 -44 38 -44q30 0 30 45v632h127z" />
    <glyph glyph-name="Uacute" unicode="&#xda;" horiz-adv-x="457" 
d="M250 890h124l-110 -104h-110zM357 764v-619q0 -78 -44 -119.5t-120 -41.5q-77 0 -120 41t-43 119v620h132v-633q0 -44 38 -44q30 0 30 45v632h127z" />
    <glyph glyph-name="Ucircumflex" unicode="&#xdb;" horiz-adv-x="457" 
d="M242 888l77 -104h-92l-32 41l-28 -41h-87l77 104h85zM357 764v-619q0 -78 -44 -119.5t-120 -41.5q-77 0 -120 41t-43 119v620h132v-633q0 -44 38 -44q30 0 30 45v632h127z" />
    <glyph glyph-name="Udieresis" unicode="&#xdc;" horiz-adv-x="457" 
d="M316 888v-97h-98v97h98zM173 888v-97h-100v97h100zM357 764v-619q0 -78 -44 -119.5t-120 -41.5q-77 0 -120 41t-43 119v620h132v-633q0 -44 38 -44q30 0 30 45v632h127z" />
    <glyph glyph-name="Yacute" unicode="&#xdd;" horiz-adv-x="453" 
d="M248 888h124l-110 -104h-110zM245 764h125l-112 -471v-299h-133v300l-112 470h140l44 -291z" />
    <glyph glyph-name="Thorn" unicode="&#xde;" horiz-adv-x="448" 
d="M362 389q0 -253 -160 -253h-35v-142h-133v770h134v-135h22q89 0 130.5 -54t41.5 -186zM232 390q0 76 -12 104.5t-38 28.5h-15v-281h16q24 0 36.5 32t12.5 116z" />
    <glyph glyph-name="germandbls" unicode="&#xdf;" 
d="M188 540v-298h-132v298h132z" />
    <glyph glyph-name="agrave" unicode="&#xe0;" horiz-adv-x="439" 
d="M170 888l66 -104h-109l-80 104h123zM254 764l102 -768h-134l-10 107h-79l-10 -107h-111l99 768h143zM144 210h55l-24 306z" />
    <glyph glyph-name="aacute" unicode="&#xe1;" horiz-adv-x="439" 
d="M209 888h124l-110 -104h-110zM254 764l102 -768h-134l-10 107h-79l-10 -107h-111l99 768h143zM144 210h55l-24 306z" />
    <glyph glyph-name="acircumflex" unicode="&#xe2;" horiz-adv-x="439" 
d="M218 888l77 -104h-92l-32 41l-28 -41h-87l77 104h85zM254 764l102 -768h-134l-10 107h-79l-10 -107h-111l99 768h143zM144 210h55l-24 306z" />
    <glyph glyph-name="atilde" unicode="&#xe3;" horiz-adv-x="439" 
d="M251 892h63q-14 -109 -86 -109q-15 0 -41 11q-5 2 -15 6.5t-15 6.5q-18 7 -28 7q-17 0 -22 -30h-65q5 50 27.5 79t59.5 29q16 0 39 -10l29 -13q18 -8 28 -8q11 0 16.5 7t9.5 24zM254 764l102 -768h-134l-10 107h-79l-10 -107h-111l99 768h143zM144 210h55l-24 306z" />
    <glyph glyph-name="adieresis" unicode="&#xe4;" horiz-adv-x="439" 
d="M292 888v-97h-98v97h98zM149 888v-97h-100v97h100zM254 764l102 -768h-134l-10 107h-79l-10 -107h-111l99 768h143zM144 210h55l-24 306z" />
    <glyph glyph-name="aring" unicode="&#xe5;" horiz-adv-x="439" 
d="M265 850q0 -35 -25 -59.5t-60 -24.5q-36 0 -61 24t-25 60t25 59.5t61 23.5t60.5 -23.5t24.5 -59.5zM254 764l102 -768h-134l-10 107h-79l-10 -107h-111l99 768h143zM144 210h55l-24 306z" />
    <glyph glyph-name="ae" unicode="&#xe6;" horiz-adv-x="613" 
d="M525 102v-106h-270v106h-98l-20 -106h-125l180 768h332v-106h-136v-213h113v-108h-113v-235h137zM255 210l1 368l-78 -368h77z" />
    <glyph glyph-name="ccedilla" unicode="&#xe7;" horiz-adv-x="427" 
d="M338 157q0 -92 -34.5 -130.5t-98.5 -42.5l-6 -17q104 -7 104 -79q0 -44 -44 -67t-120 -24l-5 44q88 7 88 47q0 30 -69 24l-15 14l21 60q-133 16 -133 161v463q0 82 42.5 124.5t116.5 42.5q73 0 112.5 -37.5t39.5 -134.5q0 -52 -8 -102l-101 8q7 51 7 79q0 51 -9 68
t-29 17t-29 -10.5t-9 -38.5v-490q0 -27 8.5 -39t30.5 -12q18 0 27.5 18.5t9.5 69.5q0 25 -7 83l102 7q8 -52 8 -106z" />
    <glyph glyph-name="egrave" unicode="&#xe8;" horiz-adv-x="393" 
d="M170 888l66 -104h-109l-80 104h123zM304 102v-106h-270v768h269v-106h-136v-213h113v-108h-113v-235h137z" />
    <glyph glyph-name="eacute" unicode="&#xe9;" horiz-adv-x="393" 
d="M219 888h124l-110 -104h-110zM304 102v-106h-270v768h269v-106h-136v-213h113v-108h-113v-235h137z" />
    <glyph glyph-name="ecircumflex" unicode="&#xea;" horiz-adv-x="393" 
d="M212 888l77 -104h-92l-32 41l-28 -41h-87l77 104h85zM304 102v-106h-270v768h269v-106h-136v-213h113v-108h-113v-235h137z" />
    <glyph glyph-name="edieresis" unicode="&#xeb;" horiz-adv-x="393" 
d="M288 888v-97h-98v97h98zM145 888v-97h-100v97h100zM304 102v-106h-270v768h269v-106h-136v-213h113v-108h-113v-235h137z" />
    <glyph glyph-name="igrave" unicode="&#xec;" horiz-adv-x="271" 
d="M92 888l66 -104h-109l-80 104h123zM167 764v-770h-133v770h133z" />
    <glyph glyph-name="iacute" unicode="&#xed;" horiz-adv-x="271" 
d="M130 888h124l-110 -104h-110zM167 764v-770h-133v770h133z" />
    <glyph glyph-name="icircumflex" unicode="&#xee;" horiz-adv-x="271" 
d="M145 888l77 -104h-92l-32 41l-28 -41h-87l77 104h85zM167 764v-770h-133v770h133z" />
    <glyph glyph-name="idieresis" unicode="&#xef;" horiz-adv-x="271" 
d="M213 888v-97h-98v97h98zM70 888v-97h-100v97h100zM167 764v-770h-133v770h133z" />
    <glyph glyph-name="eth" unicode="&#xf0;" horiz-adv-x="489" 
d="M393 590v-433q0 -88 -42 -124.5t-125 -36.5h-166v353h-44v92h44v323h163q87 0 128.5 -39t41.5 -135zM260 151v453q0 32 -9.5 43t-31.5 11h-26v-217h38v-92h-38v-247h24q24 0 33.5 11t9.5 38z" />
    <glyph glyph-name="ntilde" unicode="&#xf1;" horiz-adv-x="445" 
d="M255 892h64q-14 -109 -87 -109q-14 0 -40 11q-5 2 -15 6.5t-15 6.5q-18 7 -29 7q-17 0 -22 -30h-65q5 50 27.5 79t59.5 29q16 0 39 -10l29 -13q18 -8 28 -8q11 0 16.5 7t9.5 24zM341 764v-770h-98l-99 395v-395h-110v770h112l85 -341v341h110z" />
    <glyph glyph-name="ograve" unicode="&#xf2;" horiz-adv-x="455" 
d="M193 888l66 -104h-109l-80 104h123zM358 607v-453q0 -89 -45.5 -129.5t-118.5 -40.5q-74 0 -121 41.5t-47 128.5v453q0 88 47 129t121 41t119 -40.5t45 -129.5zM226 128v505q0 21 -10 31.5t-23 10.5q-34 0 -34 -42v-504q0 -42 35 -42q32 0 32 41z" />
    <glyph glyph-name="oacute" unicode="&#xf3;" horiz-adv-x="455" 
d="M230 888h124l-110 -104h-110zM358 607v-453q0 -89 -45.5 -129.5t-118.5 -40.5q-74 0 -121 41.5t-47 128.5v453q0 88 47 129t121 41t119 -40.5t45 -129.5zM226 128v505q0 21 -10 31.5t-23 10.5q-34 0 -34 -42v-504q0 -42 35 -42q32 0 32 41z" />
    <glyph glyph-name="ocircumflex" unicode="&#xf4;" horiz-adv-x="455" 
d="M241 888l77 -104h-92l-30 43l-30 -43h-87l77 104h85zM358 607v-453q0 -89 -45.5 -129.5t-118.5 -40.5q-74 0 -121 41.5t-47 128.5v453q0 88 47 129t121 41t119 -40.5t45 -129.5zM226 128v505q0 21 -10 31.5t-23 10.5q-34 0 -34 -42v-504q0 -42 35 -42q32 0 32 41z" />
    <glyph glyph-name="otilde" unicode="&#xf5;" horiz-adv-x="455" 
d="M265 892h63q-14 -109 -86 -109q-15 0 -41 11q-5 2 -15 6.5t-15 6.5q-18 7 -28 7q-17 0 -22 -30h-65q5 50 27.5 79t59.5 29q16 0 39 -10l29 -13q18 -8 28 -8q11 0 16.5 7t9.5 24zM358 607v-453q0 -89 -45.5 -129.5t-118.5 -40.5q-74 0 -121 41.5t-47 128.5v453
q0 88 47 129t121 41t119 -40.5t45 -129.5zM226 128v505q0 21 -10 31.5t-23 10.5q-34 0 -34 -42v-504q0 -42 35 -42q32 0 32 41z" />
    <glyph glyph-name="odieresis" unicode="&#xf6;" horiz-adv-x="455" 
d="M315 888v-97h-98v97h98zM172 888v-97h-100v97h100zM358 607v-453q0 -89 -45.5 -129.5t-118.5 -40.5q-74 0 -121 41.5t-47 128.5v453q0 88 47 129t121 41t119 -40.5t45 -129.5zM226 128v505q0 21 -10 31.5t-23 10.5q-34 0 -34 -42v-504q0 -42 35 -42q32 0 32 41z" />
    <glyph glyph-name="divide" unicode="&#xf7;" 
d="M188 540v-298h-132v298h132z" />
    <glyph glyph-name="oslash" unicode="&#xf8;" horiz-adv-x="459" 
d="M309 841l87 -31l-47 -130q6 -18 7 -23q4 -22 4 -50v-453q0 -89 -45.5 -129.5t-119.5 -40.5q-51 0 -85 17l-24 -70l-89 31l42 117q-12 36 -12 75v453q0 88 46.5 129t121.5 41q48 0 86 -18zM160 426l67 181v26q0 21 -10 31.5t-23 10.5q-34 0 -34 -42v-207zM227 128v201
l-67 -185v-15q0 -42 35 -42q32 0 32 41z" />
    <glyph glyph-name="ugrave" unicode="&#xf9;" horiz-adv-x="457" 
d="M188 888l66 -104h-109l-80 104h123zM357 764v-619q0 -78 -44 -119.5t-120 -41.5q-77 0 -120 41t-43 119v620h132v-633q0 -44 38 -44q30 0 30 45v632h127z" />
    <glyph glyph-name="uacute" unicode="&#xfa;" horiz-adv-x="457" 
d="M248 889h124l-105 -102h-111zM357 764v-619q0 -78 -44 -119.5t-120 -41.5q-77 0 -120 41t-43 119v620h132v-633q0 -44 38 -44q30 0 30 45v632h127z" />
    <glyph glyph-name="ucircumflex" unicode="&#xfb;" horiz-adv-x="457" 
d="M243 888l77 -104h-92l-31 41l-29 -41h-87l77 104h85zM357 764v-619q0 -78 -44 -119.5t-120 -41.5q-77 0 -120 41t-43 119v620h132v-633q0 -44 38 -44q30 0 30 45v632h127z" />
    <glyph glyph-name="udieresis" unicode="&#xfc;" horiz-adv-x="457" 
d="M317 888v-97h-98v97h98zM174 888v-97h-100v97h100zM357 764v-619q0 -78 -44 -119.5t-120 -41.5q-77 0 -120 41t-43 119v620h132v-633q0 -44 38 -44q30 0 30 45v632h127z" />
    <glyph glyph-name="yacute" unicode="&#xfd;" horiz-adv-x="453" 
d="M248 888h124l-110 -104h-110zM245 764h125l-112 -471v-299h-133v300l-112 470h140l44 -291z" />
    <glyph glyph-name="thorn" unicode="&#xfe;" horiz-adv-x="448" 
d="M362 389q0 -253 -160 -253h-35v-142h-133v770h134v-135h22q89 0 130.5 -54t41.5 -186zM232 390q0 76 -12 104.5t-38 28.5h-15v-281h16q24 0 36.5 32t12.5 116z" />
    <glyph glyph-name="ydieresis" unicode="&#xff;" horiz-adv-x="453" 
d="M315 888v-97h-98v97h98zM172 888v-97h-100v97h100zM245 764h125l-112 -471v-299h-133v300l-112 470h140l44 -291z" />
    <glyph glyph-name="dotlessi" unicode="&#x131;" horiz-adv-x="271" 
d="M167 764v-770h-133v770h133z" />
    <glyph glyph-name="Lslash" unicode="&#x141;" horiz-adv-x="449" 
d="M361 102v-106h-270v297l-79 -56v121l79 56v350h132v-256l83 59v-123l-83 -58v-284h138z" />
    <glyph glyph-name="lslash" unicode="&#x142;" horiz-adv-x="449" 
d="M361 102v-106h-270v297l-79 -56v121l79 56v350h132v-256l83 59v-123l-83 -58v-284h138z" />
    <glyph glyph-name="OE" unicode="&#x152;" horiz-adv-x="584" 
d="M496 102v-106h-237q-33 -12 -65 -12q-168 0 -168 166v461q0 84 44.5 125t119.5 41q32 0 65 -13h240v-106h-136v-213h113v-108h-113v-235h137zM226 98v563q-14 14 -34 14q-33 0 -33 -44v-503q0 -45 34 -45q19 0 33 15z" />
    <glyph glyph-name="oe" unicode="&#x153;" horiz-adv-x="584" 
d="M496 102v-106h-237q-33 -12 -65 -12q-168 0 -168 166v461q0 84 44.5 125t119.5 41q32 0 65 -13h240v-106h-136v-213h113v-108h-113v-235h137zM226 98v563q-14 14 -34 14q-33 0 -33 -44v-503q0 -45 34 -45q19 0 33 15z" />
    <glyph glyph-name="Scaron" unicode="&#x160;" horiz-adv-x="416" 
d="M205 888h86l-76 -104h-85l-80 104h95l30 -42zM328 175v-15q0 -89 -42.5 -132.5t-118.5 -43.5q-144 0 -144 174q0 52 8 108l100 -12q-7 -51 -7 -85q0 -47 8 -64.5t27 -17.5q34 0 34 64v21q0 46 -17.5 89t-63.5 99q-49 59 -70 111t-21 118v12q0 176 153 176q78 0 110.5 -45
t32.5 -129q0 -43 -7 -95l-101 12q5 43 5 72q0 48 -7 65.5t-24 17.5q-16 0 -22.5 -13t-6.5 -47v-16q0 -67 64 -149q110 -142 110 -275z" />
    <glyph glyph-name="scaron" unicode="&#x161;" horiz-adv-x="416" 
d="M205 888h86l-76 -104h-85l-80 104h95l30 -42zM328 175v-15q0 -89 -42.5 -132.5t-118.5 -43.5q-144 0 -144 174q0 52 8 108l100 -12q-7 -51 -7 -85q0 -47 8 -64.5t27 -17.5q34 0 34 64v21q0 46 -17.5 89t-63.5 99q-49 59 -70 111t-21 118v12q0 176 153 176q78 0 110.5 -45
t32.5 -129q0 -43 -7 -95l-101 12q5 43 5 72q0 48 -7 65.5t-24 17.5q-16 0 -22.5 -13t-6.5 -47v-16q0 -67 64 -149q110 -142 110 -275z" />
    <glyph glyph-name="Ydieresis" unicode="&#x178;" horiz-adv-x="453" 
d="M315 888v-97h-98v97h98zM172 888v-97h-100v97h100zM245 764h125l-112 -471v-299h-133v300l-112 470h140l44 -291z" />
    <glyph glyph-name="Zcaron" unicode="&#x17d;" horiz-adv-x="410" 
d="M217 888h86l-76 -104h-85l-80 104h95l30 -42zM319 102v-106h-298v91l163 572h-148v105h283v-91l-156 -571h156z" />
    <glyph glyph-name="zcaron" unicode="&#x17e;" horiz-adv-x="410" 
d="M217 888h86l-76 -104h-85l-80 104h95l30 -42zM319 102v-106h-298v91l163 572h-148v105h283v-91l-156 -571h156z" />
    <glyph glyph-name="florin" unicode="&#x192;" horiz-adv-x="486" 
d="M380 753v-98q-28 4 -40 4q-31 0 -38 -48l-22 -164h69l-10 -92h-68l-37 -326q-8 -71 -44.5 -109.5t-91.5 -38.5q-32 0 -69 9v98q33 -5 42 -5q30 0 37 49l42 323h-69l13 92h67l20 169q8 68 46 106.5t92 38.5q27 0 61 -8z" />
    <glyph glyph-name="circumflex" unicode="&#x2c6;" horiz-adv-x="480" 
d="M261 888l76 -104h-91l-32 41l-29 -41h-86l76 104h86z" />
    <glyph glyph-name="caron" unicode="&#x2c7;" horiz-adv-x="480" 
d="M241 888h86l-76 -104h-85l-80 104h95l30 -42z" />
    <glyph glyph-name="breve" unicode="&#x2d8;" horiz-adv-x="480" 
d="M289 901l32 -25q-16 -47 -47 -73t-70 -26q-40 0 -70.5 26t-46.5 73l31 25q33 -55 86 -55q52 0 85 55z" />
    <glyph glyph-name="dotaccent" unicode="&#x2d9;" horiz-adv-x="480" 
d="M255 888v-97h-98v97h98z" />
    <glyph glyph-name="ring" unicode="&#x2da;" horiz-adv-x="480" 
d="M291 850q0 -35 -25 -59.5t-60 -24.5q-36 0 -61 24t-25 60t25 59.5t61 23.5t60.5 -23.5t24.5 -59.5z" />
    <glyph glyph-name="ogonek" unicode="&#x2db;" 
d="M188 540v-298h-132v298h132z" />
    <glyph glyph-name="tilde" unicode="&#x2dc;" horiz-adv-x="480" 
d="M278 892h64q-14 -109 -87 -109q-14 0 -40 11q-5 2 -15 6.5t-15 6.5q-17 7 -29 7q-17 0 -22 -30h-65q5 50 27.5 79t59.5 29q16 0 39 -10l29 -13q18 -8 28 -8q11 0 16.5 7t9.5 24z" />
    <glyph glyph-name="hungarumlaut" unicode="&#x2dd;" horiz-adv-x="480" 
d="M276 888h122l-109 -104h-110zM125 888h124l-109 -104h-111z" />
    <glyph glyph-name="pi" unicode="&#x3c0;" 
d="M188 540v-298h-132v298h132z" />
    <glyph glyph-name="endash" unicode="&#x2013;" horiz-adv-x="624" 
d="M488 441v-105h-422v105h422z" />
    <glyph glyph-name="emdash" unicode="&#x2014;" horiz-adv-x="833" 
d="M697 441v-105h-631v105h631z" />
    <glyph glyph-name="quoteleft" unicode="&#x2018;" horiz-adv-x="267" 
d="M161 692v-123h-125v119q0 70 86 118l34 -33q-29 -19 -44 -36.5t-16 -44.5h65z" />
    <glyph glyph-name="quoteright" unicode="&#x2019;" horiz-adv-x="267" 
d="M161 764v-119q0 -70 -86 -118l-34 33q29 19 44 36.5t16 44.5h-65v123h125z" />
    <glyph glyph-name="quotesinglbase" unicode="&#x201a;" horiz-adv-x="267" 
d="M161 119v-119q0 -70 -86 -118l-34 33q29 19 44 36.5t16 44.5h-65v123h125z" />
    <glyph glyph-name="quotedblleft" unicode="&#x201c;" horiz-adv-x="422" 
d="M316 692v-123h-125v119q0 70 86 118l34 -33q-29 -19 -44 -36.5t-16 -44.5h65zM161 692v-123h-125v119q0 70 86 118l34 -33q-29 -19 -44 -36.5t-16 -44.5h65z" />
    <glyph glyph-name="quotedblright" unicode="&#x201d;" horiz-adv-x="422" 
d="M316 764v-119q0 -70 -86 -118l-34 33q29 19 44 36.5t16 44.5h-65v123h125zM161 764v-119q0 -70 -86 -118l-34 33q29 19 44 36.5t16 44.5h-65v123h125z" />
    <glyph glyph-name="quotedblbase" unicode="&#x201e;" horiz-adv-x="422" 
d="M316 119v-119q0 -70 -86 -118l-34 33q29 19 44 36.5t16 44.5h-65v123h125zM160 119v-119q0 -70 -86 -118l-34 33q29 19 44 36.5t16 44.5h-65v123h125z" />
    <glyph glyph-name="dagger" unicode="&#x2020;" horiz-adv-x="484" 
d="M377 614v-97h-105v-572h-133v572h-103v97h103v161h133v-161h105z" />
    <glyph glyph-name="daggerdbl" unicode="&#x2021;" horiz-adv-x="483" 
d="M377 221v-97h-105v-179h-133v179h-102v97h102v296h-103v97h103v161h133v-161h105v-97h-105v-296h105z" />
    <glyph glyph-name="bullet" unicode="&#x2022;" horiz-adv-x="407" 
d="M291 393q0 -50 -36 -86.5t-86 -36.5t-86.5 36.5t-36.5 86.5t36.5 86t86.5 36t86 -36t36 -86z" />
    <glyph glyph-name="ellipsis" unicode="&#x2026;" horiz-adv-x="636" 
d="M530 119v-125h-125v125h125zM346 119v-125h-125v125h125zM161 119v-125h-125v125h125z" />
    <glyph glyph-name="perthousand" unicode="&#x2030;" horiz-adv-x="985" 
d="M897 338v-261q0 -47 -31.5 -69.5t-74.5 -22.5q-45 0 -76.5 23.5t-31.5 72.5v255q0 45 32 68t75 23t75 -22t32 -67zM640 338v-261q0 -47 -31.5 -69.5t-74.5 -22.5q-45 0 -76.5 23.5t-31.5 72.5v255q0 45 32 68t75 23t75 -22t32 -67zM143 732h363l-248 -736h-92l229 670
h-146q2 -8 2 -23v-260q0 -47 -31.5 -69.5t-74.5 -22.5q-45 0 -76.5 23.5t-31.5 72.5v255q0 43 31.5 66.5t74.5 23.5zM810 84v246q0 23 -20 23q-21 0 -21 -24v-244q0 -25 21 -25q20 0 20 24zM553 84v246q0 23 -20 23q-21 0 -21 -24v-244q0 -25 21 -25q20 0 20 24zM164 389
v246q0 23 -20 23q-21 0 -21 -24v-244q0 -25 21 -25q20 0 20 24z" />
    <glyph glyph-name="guilsinglleft" unicode="&#x2039;" horiz-adv-x="401" 
d="M157 390l121 -216h-122l-120 213v8l121 212h121z" />
    <glyph glyph-name="guilsinglright" unicode="&#x203a;" horiz-adv-x="388" 
d="M282 397v-8l-120 -213h-122l121 216l-121 217h121z" />
    <glyph glyph-name="fraction" unicode="&#x2044;" horiz-adv-x="505" 
d="M286 766h126l-260 -770h-129z" />
    <glyph glyph-name="Euro" unicode="&#x20ac;" horiz-adv-x="440" 
d="M356 155q0 -90 -36 -130.5t-105 -40.5q-77 0 -120.5 39.5t-43.5 121.5v150h-44l16 79h28v21h-43l15 75h28v140q0 81 43 124t118 43q143 0 143 -172q0 -58 -8 -108l-101 8q7 54 7 85q0 51 -8 68t-26 17q-19 0 -27 -10.5t-8 -38.5v-156h128l-16 -75h-112v-21h127l-16 -79
h-111v-161q0 -29 6 -39.5t27 -10.5q36 0 36 89q0 27 -7 83l102 7q8 -52 8 -108z" />
    <glyph glyph-name="trademark" unicode="&#x2122;" horiz-adv-x="358" 
d="M308 760v-213h-40v128h-4l-2 -18l-23 -110h-23l-24 110l-1 16h-4v-126h-36v213h54l21 -111l2 -21h4l2 21l23 111h51zM132 760v-31h-34v-182h-41v182h-35v31h110z" />
    <glyph glyph-name="Omega" unicode="&#x2126;" 
d="M188 540v-298h-132v298h132z" />
    <glyph glyph-name="partialdiff" unicode="&#x2202;" 
d="M188 540v-298h-132v298h132z" />
    <glyph glyph-name="Delta" unicode="&#x2206;" 
d="M188 540v-298h-132v298h132z" />
    <glyph glyph-name="product" unicode="&#x220f;" 
d="M188 540v-298h-132v298h132z" />
    <glyph glyph-name="summation" unicode="&#x2211;" 
d="M188 540v-298h-132v298h132z" />
    <glyph glyph-name="minus" unicode="&#x2212;" horiz-adv-x="485" 
d="M379 441v-105h-343v105h343z" />
    <glyph glyph-name="radical" unicode="&#x221a;" 
d="M188 540v-298h-132v298h132z" />
    <glyph glyph-name="infinity" unicode="&#x221e;" 
d="M188 540v-298h-132v298h132z" />
    <glyph glyph-name="integral" unicode="&#x222b;" 
d="M188 540v-298h-132v298h132z" />
    <glyph glyph-name="approxequal" unicode="&#x2248;" 
d="M188 540v-298h-132v298h132z" />
    <glyph glyph-name="notequal" unicode="&#x2260;" 
d="M188 540v-298h-132v298h132z" />
    <glyph glyph-name="lessequal" unicode="&#x2264;" 
d="M188 540v-298h-132v298h132z" />
    <glyph glyph-name="greaterequal" unicode="&#x2265;" 
d="M188 540v-298h-132v298h132z" />
    <glyph glyph-name="lozenge" unicode="&#x25ca;" 
d="M188 540v-298h-132v298h132z" />
    <glyph glyph-name="apple" unicode="&#xf8ff;" horiz-adv-x="0" 
 />
    <glyph glyph-name="fi" unicode="&#xfb01;" 
d="M188 540v-298h-132v298h132z" />
    <glyph glyph-name="fl" unicode="&#xfb02;" 
d="M188 540v-298h-132v298h132z" />
    <glyph glyph-name="NUL" horiz-adv-x="500" 
 />
    <glyph glyph-name="nbspace" horiz-adv-x="1000" 
 />
    <glyph glyph-name="typedesign.com" horiz-adv-x="931" 
d="M831 383q0 -152 -106.5 -259t-257.5 -107q-152 0 -259.5 107.5t-107.5 258.5t108 259t259 108t257.5 -107.5t106.5 -259.5zM818 383q0 146 -103 249.5t-248 103.5t-248.5 -103.5t-103.5 -249.5q0 -145 103.5 -248.5t248.5 -103.5t248 103t103 249zM791 383
q0 -134 -95 -229.5t-229 -95.5t-229.5 95.5t-95.5 229.5t95.5 229.5t229.5 95.5t229 -95.5t95 -229.5zM760 381q0 116 -79.5 200.5t-199.5 94.5v-585q40 0 74 14v239h199q0 3 3 16.5t3 20.5zM691 194l11 10v50l-11 10h-78v15h89v25h-115v-62h89v-24h-63v12h-26v-26l11 -10
h93zM242 461h101v25h-39v91l-62 -14v-25l38 8v-60h-38v-25zM449 91v584q-44 0 -72 -13v-468q-58 28 -89.5 78t-31.5 114q0 11 3 35h-82q0 -5 -2 -17t-2 -19q0 -121 81 -203t195 -91zM672 421h-117v152q40 -10 76.5 -56t40.5 -96z" />
    </font>
</defs>
</svg>
